<?xml version="1.0" standalone="no"?>
<!DOCTYPE svg PUBLIC "-//W3C//DTD SVG 1.1//EN" "http://www.w3.org/Graphics/SVG/1.1/DTD/svg11.dtd" >
<svg xmlns="http://www.w3.org/2000/svg">
<metadata>Generated by IcoMoon</metadata>
<defs>
<font id="SYWfont" horiz-adv-x="1024">
<font-face units-per-em="1024" ascent="960" descent="-64" />
<missing-glyph horiz-adv-x="1024" />
<glyph unicode="&#x20;" horiz-adv-x="512" d="" />
<glyph unicode="&#xe019;" glyph-name="album" d="M512 475.043c27.643 0 48.376-20.733 48.376-48.376s-20.733-48.376-48.376-48.376-48.376 20.733-48.376 48.376 20.733 48.376 48.376 48.376zM512 205.521c122.091 0 221.146 99.055 221.146 221.146s-99.055 221.146-221.146 221.146-221.146-99.055-221.146-221.146 99.055-221.146 221.146-221.146zM512 917.334c271.825 0 490.667-218.842 490.667-490.667s-218.842-490.667-490.667-490.667-490.667 218.842-490.667 490.667 218.842 490.667 490.667 490.667z" />
<glyph unicode="&#xe023;" glyph-name="hearing" d="M490 554.667q0 44 32 75t76 31 75-31 31-75-31-75-75-31-76 31-32 75zM326 826.667q-112-112-112-272t112-272l-60-60q-138 138-138 332t138 332zM726 84.667q34 0 59 26t25 60h86q0-70-50-120t-120-50q-40 0-70 14-82 42-118 152-14 44-72 88-82 60-122 134-46 82-46 166 0 126 87 212t213 86 212-86 86-212h-86q0 90-61 152t-151 62-152-62-62-152q0-64 34-126 28-54 100-108 80-60 102-128 26-76 72-100 16-8 34-8z" />
<glyph unicode="&#xe02c;" glyph-name="movie" d="M768 768.667h170v-598q0-34-25-60t-59-26h-684q-34 0-59 26t-25 60v512q0 34 25 60t59 26h44l84-172h128l-84 172h84l86-172h128l-86 172h86l86-172h128z" />
<glyph unicode="&#xe038;" glyph-name="play_circle_filled" d="M426 234.667l256 192-256 192v-384zM512 852.667c236 0 426-190 426-426s-190-426-426-426-426 190-426 426 190 426 426 426z" />
<glyph unicode="&#xe03d;" glyph-name="queue_music" d="M726 682.667h212v-86h-128v-384q0-52-38-90t-90-38-90 38-38 90 38 90 90 38q16 0 44-8v350zM128 256.667v84h342v-84h-342zM640 512.667v-86h-512v86h512zM640 682.667v-86h-512v86h512z" />
<glyph unicode="&#xe03f;" glyph-name="recent_actors" d="M535.966 193.544v34.86q0 47.932-71.898 76.255t-137.26 28.323-137.26-28.323-71.898-76.255v-34.86h418.315zM326.809 624.931q-41.396 0-72.987-31.591t-31.591-72.987 31.591-72.987 72.987-31.591 72.987 31.591 31.591 72.987-31.591 72.987-72.987 31.591zM605.685 751.297q19.609 0 32.681-13.072t13.072-32.681v-557.753q0-19.609-13.072-32.681t-32.681-13.072h-557.753q-19.609 0-33.77 13.072t-14.162 32.681v557.753q0 19.609 14.162 32.681t33.77 13.072h557.753zM745.123 102.037v649.26h91.506v-649.26h-91.506zM930.315 751.297h93.685v-649.26h-93.685v649.26z" />
<glyph unicode="&#xe048;" glyph-name="subtitles" d="M854 340.667v86h-428v-86h428zM854 170.667v86h-172v-86h172zM598 170.667v86h-428v-86h428zM170 426.667v-86h172v86h-172zM854 768.667q34 0 59-26t25-60v-512q0-34-25-60t-59-26h-684q-34 0-59 26t-25 60v512q0 34 25 60t59 26h684z" />
<glyph unicode="&#xe053;" glyph-name="sort_by_alpha" d="M672 250.667h260v-68h-364v54l252 366h-250v68h354v-54zM212 356.667h166l-84 222zM260 670.667h70l192-488h-78l-40 104h-218l-40-104h-78zM438 112.667h198l-100-100zM638 740.667h-202l100 100z" />
<glyph unicode="&#xe05e;" glyph-name="fiber_new" d="M874 340.667v214h-52v-192h-48v150h-54v-150h-48v192h-54v-214q0-18 13-30t31-12h170q18 0 30 12t12 30zM576 500.667v54h-170v-256h170v54h-106v46h106v54h-106v48h106zM362 298.667v256h-52v-150l-108 150h-52v-256h52v150l110-150h50zM854 768.667q36 0 60-25t24-61v-512q0-36-24-61t-60-25h-684q-36 0-60 25t-24 61v512q0 36 24 61t60 25h684z" />
<glyph unicode="&#xe05f;" glyph-name="playlist_play" d="M726 384.667l212-128-212-128v256zM86 298.667v86h554v-86h-554zM810 724.667v-84h-724v84h724zM810 554.667v-86h-724v86h724z" />
<glyph unicode="&#xe060;" glyph-name="art_track" d="M435.080 272.827l-115.38 153.84-88.939-115.38-64.901 76.92-88.939-115.38h358.16zM512 580.507v-307.681q0-40.864-31.249-72.113t-72.113-31.249h-307.681q-40.864 0-70.911 31.249t-30.047 72.113v307.681q0 40.864 30.047 72.113t70.911 31.249h307.681q40.864 0 72.113-31.249t31.249-72.113zM615.362 169.465v103.362h408.638v-103.362h-408.638zM1024 683.869v-103.362h-408.638v103.362h408.638zM1024 376.188h-408.638v100.958h408.638v-100.958z" />
<glyph unicode="&#xe062;" glyph-name="fiber_smart_record" d="M726 756.667c148-38 256-170 256-330s-108-292-256-330v88c100 34 170 130 170 242s-70 208-170 242v88zM42 426.667c0 188 154 342 342 342s342-154 342-342-154-342-342-342-342 154-342 342z" />
<glyph unicode="&#xe063;" glyph-name="music_video" d="M342 298.667q0 52 38 90t90 38q14 0 42-8v264h214v-86h-128v-300q0-52-38-89t-90-37-90 38-38 90zM896 128.667v596h-768v-596h768zM896 810.667q34 0 60-26t26-60v-596q0-34-26-60t-60-26h-768q-34 0-60 26t-26 60v596q0 34 26 60t60 26h768z" />
<glyph unicode="&#xe065;" glyph-name="playlist_add_check" d="M918 448.667l64-64-298-300-194 192 64 64 130-128zM86 256.667v84h340v-84h-340zM598 682.667v-86h-512v86h512zM598 512.667v-86h-512v86h512z" />
<glyph unicode="&#xe068;" glyph-name="slow_motion_video" d="M938 426.667q0-164-110-286t-272-138v86q126 16 212 113t86 225-86 225-212 113v86q162-16 272-138t110-286zM242 96.667l60 60q74-56 168-68v-86q-126 12-228 94zM174 384.667q12-94 68-166l-60-62q-82 102-94 228h86zM242 636.667q-56-74-68-168h-86q12 126 94 228zM470 764.667q-94-12-168-68l-60 60q102 82 228 94v-86zM556 520.667l126-94q-126-94-256-192z" />
<glyph unicode="&#xe069;" glyph-name="web_asset" d="M810 170.667v426h-596v-426h596zM810 768.667q36 0 61-26t25-60v-512q0-34-26-60t-60-26h-596q-36 0-61 26t-25 60v512q0 34 25 60t61 26h596z" />
<glyph unicode="&#xe06c;" glyph-name="call_to_action" d="M896 128.667v128h-768v-128h768zM896 810.667c46 0 86-40 86-86v-596c0-46-40-86-86-86h-768c-46 0-86 40-86 86v596c0 46 40 86 86 86h768z" />
<glyph unicode="&#xe06d;" glyph-name="featured_play_list" d="M512 640.667v84h-384v-84h384zM512 468.667v86h-384v-86h384zM896 810.667c46 0 86-40 86-86v-596c0-46-40-86-86-86h-768c-46 0-86 40-86 86v596c0 46 40 86 86 86h768z" />
<glyph unicode="&#xe06e;" glyph-name="featured_video" d="M512 426.667v298h-384v-298h384zM896 810.667c46 0 86-40 86-86v-596c0-46-40-86-86-86h-768c-46 0-86 40-86 86v596c0 46 40 86 86 86h768z" />
<glyph unicode="&#xe06f;" glyph-name="note" d="M640 704.667v-236h234zM938 512.667v-342c0-46-38-84-84-84l-684-2c-46 0-84 40-84 86v512c0 46 38 86 84 86h512z" />
<glyph unicode="&#xe071;" glyph-name="video_label" d="M896 256.667v468h-768v-468h768zM896 810.667c46 0 86-40 86-86v-596c0-46-40-86-86-86h-768c-46 0-86 40-86 86v596c0 46 40 86 86 86h768z" />
<glyph unicode="&#xe0b0;" glyph-name="call" d="M282 478.667q96-186 282-282l94 94q20 20 44 10 72-24 152-24 18 0 30-12t12-30v-150q0-18-12-30t-30-12q-300 0-513 213t-213 513q0 18 12 30t30 12h150q18 0 30-12t12-30q0-80 24-152 8-26-10-44z" />
<glyph unicode="&#xe0b1;" glyph-name="call_end" d="M512 554.667c-68 0-134-10-196-30v-132c0-16-10-34-24-40-42-20-80-46-114-78-8-8-18-12-30-12s-22 4-30 12l-106 106c-8 8-12 18-12 30s4 22 12 30c130 124 306 200 500 200s370-76 500-200c8-8 12-18 12-30s-4-22-12-30l-106-106c-8-8-18-12-30-12s-22 4-30 12c-34 32-72 58-114 78-14 6-24 20-24 38v132c-62 20-128 32-196 32z" />
<glyph unicode="&#xe0b7;" glyph-name="chat" d="M768 596.667v86h-512v-86h512zM598 340.667v86h-342v-86h342zM256 554.667v-86h512v86h-512zM854 852.667c46 0 84-38 84-84v-512c0-46-38-86-84-86h-598l-170-170v768c0 46 38 84 84 84h684z" />
<glyph unicode="&#xe0ba;" glyph-name="contacts" d="M726 212.667v64q0 48-73 78t-141 30-141-30-73-78v-64h428zM512 650.667q-40 0-68-28t-28-68 28-68 68-28 68 28 28 68-28 68-68 28zM854 768.667q34 0 59-26t25-60v-512q0-34-25-60t-59-26h-684q-34 0-59 26t-25 60v512q0 34 25 60t59 26h684zM170-85.333v86h684v-86h-684zM854 938.667v-86h-684v86h684z" />
<glyph unicode="&#xe0c3;" glyph-name="import_export" d="M682 212.667h128l-170-170-170 170h128v300h84v-300zM384 810.667l170-170h-128v-300h-84v300h-128z" />
<glyph unicode="&#xe0d8;" glyph-name="textsms" d="M726 468.667v86h-86v-86h86zM554 468.667v86h-84v-86h84zM384 468.667v86h-86v-86h86zM854 852.667c46 0 84-38 84-84v-512c0-46-38-86-84-86h-598l-170-170v768c0 46 38 84 84 84h684z" />
<glyph unicode="&#xe0da;" glyph-name="vpn_key" d="M298 340.667c46 0 86 40 86 86s-40 86-86 86-84-40-84-86 38-86 84-86zM540 512.667h442v-172h-86v-170h-170v170h-186c-34-100-130-170-242-170-142 0-256 114-256 256s114 256 256 256c112 0 208-70 242-170z" />
<glyph unicode="&#xe0df;" glyph-name="present_to_all" d="M426 426.667h-84l170 170 170-170h-84v-170h-172v170zM896 126.667v600h-768v-600h768zM896 810.667c48 0 86-38 86-86v-596c0-48-38-86-86-86h-768c-48 0-86 38-86 86v596c0 48 38 86 86 86h768z" />
<glyph unicode="&#xe0e0;" glyph-name="import_contacts" d="M896 148.667v492q-66 20-150 20-130 0-234-64v-490q104 64 234 64 78 0 150-22zM746 746.667q152 0 236-64v-622q0-8-7-15t-15-7q-6 0-10 2-82 44-204 44-130 0-234-64-86 64-234 64-108 0-204-46-2 0-5-1t-5-1q-8 0-15 6t-7 14v626q86 64 236 64 148 0 234-64 86 64 234 64z" />
<glyph unicode="&#xe0e1;" glyph-name="mail_outline" d="M512 468.667l342 214h-684zM854 170.667v426l-342-212-342 212v-426h684zM854 768.667q34 0 59-26t25-60v-512q0-34-25-60t-59-26h-684q-34 0-59 26t-25 60v512q0 34 25 60t59 26h684z" />
<glyph unicode="&#xe0e5;" glyph-name="rss_feed" d="M170 508.667c234 0 424-190 424-424h-122c0 166-136 302-302 302v122zM170 748.667c366 0 664-298 664-664h-120c0 300-244 544-544 544v120zM170 178.667c0 52 42 92 94 92s92-40 92-92-40-94-92-94-94 42-94 94z" />
<glyph unicode="&#xe146;" glyph-name="add_box" d="M726 384.667v84h-172v172h-84v-172h-172v-84h172v-172h84v172h172zM810 810.667c46 0 86-40 86-86v-596c0-46-40-86-86-86h-596c-48 0-86 40-86 86v596c0 46 38 86 86 86h596z" />
<glyph unicode="&#xe151;" glyph-name="drafts2" d="M512 342.001l352 220-352 206-352-206zM938 554.001v-426q0-34-25-60t-59-26h-684q-34 0-59 26t-25 60v426q0 50 40 74l386 226 386-226q40-24 40-74z" />
<glyph unicode="&#xe156;" glyph-name="inbox2" d="M810 298.667v426h-598v-426h172c0-70 58-128 128-128s128 58 128 128h170zM810 810.667c46 0 86-38 86-86v-596c0-46-40-86-86-86h-598c-48 0-84 40-84 86v596c0 48 36 86 84 86h598z" />
<glyph unicode="&#xe15e;" glyph-name="reply" d="M426 554.667c298-42 428-256 470-470-106 150-256 218-470 218v-174l-298 298 298 298v-170z" />
<glyph unicode="&#xe15f;" glyph-name="reply_all" d="M554 554.667c298-42 428-256 470-470-106 150-256 218-470 218v-174l-298 298 298 298v-170zM298 596.667l-170-170 170-170v-128l-298 298 298 298v-128z" />
<glyph unicode="&#xe160;" glyph-name="report" d="M554 384.667v256h-84v-256h84zM512 200.667c30 0 56 26 56 56s-26 54-56 54-56-24-56-54 26-56 56-56zM672 810.667l224-224v-320l-224-224h-320l-224 224v320l224 224h320z" />
<glyph unicode="&#xe163;" glyph-name="send" d="M86 42.667v298l640 86-640 86v298l896-384z" />
<glyph unicode="&#xe169;" glyph-name="unarchive" d="M218 724.667h588l-40 44h-512zM512 532.667l-234-234h148v-86h172v86h148zM876 716.667c12-14 20-36 20-56v-532c0-46-40-86-86-86h-596c-48 0-86 40-86 86v532c0 20 8 42 20 56l58 70c12 14 30 24 50 24h512c20 0 38-10 50-24z" />
<glyph unicode="&#xe16b;" glyph-name="weekend" d="M768 724.667q34 0 60-25t26-59v-92q-38-14-62-46t-24-74v-88h-512v88q0 42-24 74t-62 46v92q0 34 26 59t60 25h512zM896 512.667q34 0 60-26t26-60v-214q0-34-26-59t-60-25h-768q-34 0-60 25t-26 59v214q0 34 26 60t60 26 60-26 26-60v-128h596v128q0 34 26 60t60 26z" />
<glyph unicode="&#xe192;" glyph-name="access_time" d="M534 640.667v-224l192-114-32-54-224 136v256h64zM512 84.667q140 0 241 101t101 241-101 241-241 101-241-101-101-241 101-241 241-101zM512 852.667q176 0 301-125t125-301-125-301-301-125-301 125-125 301 125 301 301 125z" />
<glyph unicode="&#xe1a3;" glyph-name="battery_charging_full" d="M470 84.667l170 320h-86v236l-170-320h86v-236zM668 768.667c32 0 58-26 58-58v-654c0-32-26-56-58-56h-312c-32 0-58 24-58 56v654c0 32 26 58 58 58h70v84h172v-84h70z" />
<glyph unicode="&#xe1a7;" glyph-name="bluetooth" d="M634 242.667l-80 82v-162zM554 690.667v-162l80 82zM756 610.667l-184-184 184-184-244-242h-42v324l-196-196-60 60 238 238-238 238 60 60 196-196v324h42z" />
<glyph unicode="&#xe1ad;" glyph-name="brightness_low" d="M512 170.667c142 0 256 114 256 256s-114 256-256 256-256-114-256-256 114-256 256-256zM854 284.667v-200h-200l-142-140-142 140h-200v200l-140 142 140 142v200h200l142 140 142-140h200v-200l140-142z" />
<glyph unicode="&#xe1b7;" glyph-name="location_searching" d="M512 128.667q124 0 211 87t87 211-87 211-211 87-211-87-87-211 87-211 211-87zM894 468.667h88v-84h-88q-14-134-110-230t-230-110v-88h-84v88q-134 14-230 110t-110 230h-88v84h88q14 134 110 230t230 110v88h84v-88q134-14 230-110t110-230z" />
<glyph unicode="&#xe1c1;" glyph-name="screen_rotation" d="M320 22.667l58 56 162-162-28-2c-268 0-488 208-510 470h64c16-160 114-296 254-362zM632 34.667l272 272-512 512-272-272zM436 864.667l514-514c26-24 26-64 0-90l-272-272c-24-26-64-26-90 0l-514 514c-26 24-26 64 0 90l272 272c24 26 64 26 90 0zM704 830.667l-58-56-162 162 28 2c268 0 488-208 510-470h-64c-16 160-114 296-254 362z" />
<glyph unicode="&#xe1e0;" glyph-name="usb" d="M640 640.667h170v-172h-42v-84c0-48-38-86-86-86h-128v-130c30-16 52-48 52-84 0-52-42-94-94-94s-94 42-94 94c0 36 22 68 52 84v130h-128c-48 0-86 38-86 86v88c-30 16-52 46-52 82 0 52 42 94 94 94s94-42 94-94c0-36-20-66-50-82v-88h128v340h-86l128 172 128-172h-86v-340h128v84h-42v172z" />
<glyph unicode="&#xe256;" glyph-name="space_bar" d="M768 554.667h86v-256h-684v256h86v-170h512v170z" />
<glyph unicode="&#xe25d;" glyph-name="drag_handle" d="M170 298.667v86h684v-86h-684zM854 554.667v-86h-684v86h684z" />
<glyph unicode="&#xe25e;" glyph-name="format_shapes" d="M456 394.667h112l-56 164zM586 340.667h-150l-30-84h-70l146 384h60l144-384h-68zM810 724.667h86v86h-86v-86zM896 42.667v86h-86v-86h86zM726 128.667v84h84v428h-84v84h-428v-84h-84v-428h84v-84h428zM214 42.667v86h-86v-86h86zM128 810.667v-86h86v86h-86zM982 640.667h-86v-428h86v-256h-256v86h-428v-86h-256v256h86v428h-86v256h256v-86h428v86h256v-256z" />
<glyph unicode="&#xe25f;" glyph-name="highlight" d="M724 658.667l90 90 60-60-90-92zM150 688.667l60 60 90-90-60-62zM470 852.667h84v-128h-84v128zM256 340.667v214h512v-214l-128-128v-212h-256v212z" />
<glyph unicode="&#xe260;" glyph-name="linear_scale" d="M832 532.667q44 0 75-31t31-75-31-75-75-31q-72 0-98 64h-124q-26-64-98-64t-98 64h-124q-26-64-98-64-44 0-75 31t-31 75 31 75 75 31q72 0 98-64h124q26 64 98 64t98-64h124q26 64 98 64z" />
<glyph unicode="&#xe261;" glyph-name="short_text" d="M170 384.667h428v-86h-428v86zM170 554.667h684v-86h-684v86z" />
<glyph unicode="&#xe262;" glyph-name="text_fields" d="M918 554.667v-128h-128v-298h-128v298h-128v128h384zM106 768.667h556v-128h-214v-512h-128v512h-214v128z" />
<glyph unicode="&#xe2bc;" glyph-name="attachment" d="M86 404.667c0 130 104 236 234 236h448c94 0 170-78 170-172s-76-170-170-170h-362c-58 0-108 48-108 106s50 108 108 108h320v-86h-324c-24 0-24-42 0-42h366c46 0 86 38 86 84s-40 86-86 86h-448c-82 0-150-68-150-150s68-148 150-148h406v-86h-406c-130 0-234 104-234 234z" />
<glyph unicode="&#xe2cc;" glyph-name="create_new_folder" d="M810 340.667v86h-128v128h-84v-128h-128v-86h128v-128h84v128h128zM854 682.667q36 0 60-25t24-61v-426q0-36-24-61t-60-25h-684q-36 0-60 25t-24 61v512q0 36 24 61t60 25h256l86-86h342z" />
<glyph unicode="&#xe30b;" glyph-name="desktop_mac" d="M896 340.667v428h-768v-428h768zM896 852.667c46 0 86-38 86-84v-512c0-46-40-86-86-86h-298l84-128v-42h-340v42l84 128h-298c-46 0-86 40-86 86v512c0 46 40 84 86 84h768z" />
<glyph unicode="&#xe30d;" glyph-name="developer_board" d="M512 477.146h204.319v-307.681h-204.319v307.681zM204.319 683.869h257.202v-257.202h-257.202v257.202zM512 683.869h204.319v-153.84h-204.319v153.84zM204.319 376.188h257.202v-206.723h-257.202v206.723zM819.681 68.507v716.319h-718.723v-716.319h718.723zM1024 580.507h-100.958v-103.362h100.958v-100.958h-100.958v-103.362h100.958v-103.362h-100.958v-100.958q0-40.864-31.249-72.113t-72.113-31.249h-718.723q-40.864 0-70.911 31.249t-30.047 72.113v716.319q0 40.864 30.047 72.113t70.911 31.249h718.723q40.864 0 72.113-31.249t31.249-72.113v-100.958h100.958v-103.362z" />
<glyph unicode="&#xe328;" glyph-name="router" d="M654.222 142.223v95.556h-95.556v-95.556h95.556zM487.556 142.223v95.556h-93.334v-95.556h93.334zM323.112 142.223v95.556h-95.556v-95.556h95.556zM843.112 380.001c51.112 0 95.556-44.444 95.556-95.556v-188.888c0-51.112-44.444-95.556-95.556-95.556h-662.222c-51.112 0-95.556 44.444-95.556 95.556v188.888c0 51.112 44.444 95.556 95.556 95.556h473.334v188.888h95.556v-188.888h93.334zM858.666 677.779l-37.778-37.778c-33.334 33.334-77.778 46.666-120 46.666s-84.444-13.334-117.778-46.666l-37.778 37.778c42.222 42.222 97.778 66.666 155.556 66.666s115.556-24.444 157.778-66.666zM900.888 715.555c-57.778 51.112-128.888 80-200 80s-140-28.888-197.778-80l-37.778 37.778c66.666 66.666 151.112 100 235.556 100s171.112-33.334 237.778-100z" />
<glyph unicode="&#xe32d;" glyph-name="speaker" d="M512 426.667c80.626 0 147.43-66.804 147.43-147.43s-66.804-147.43-147.43-147.43-147.43 66.804-147.43 147.43 66.804 147.43 147.43 147.43zM512 32.752c135.913 0 246.485 110.573 246.485 246.485s-110.573 246.485-246.485 246.485-246.485-110.573-246.485-246.485 110.573-246.485 246.485-246.485zM512 820.582c-55.286 0-99.055-46.072-99.055-99.055s43.768-99.055 99.055-99.055c52.982 0 99.055 46.072 99.055 99.055s-46.072 99.055-99.055 99.055zM758.485 917.334c52.982 0 96.751-43.768 96.751-96.751v-787.831c0-52.982-43.768-96.751-96.751-96.751h-492.971c-52.982 0-96.751 43.768-96.751 96.751v787.831c0 52.982 43.768 96.751 96.751 96.751h492.971z" />
<glyph unicode="&#xe32f;" glyph-name="tablet" d="M810 170.667v512h-596v-512h596zM896 768.667c46 0 86-40 86-86l-2-512c0-46-38-86-84-86h-768c-46 0-86 40-86 86v512c0 46 40 86 86 86h768z" />
<glyph unicode="&#xe332;" glyph-name="toys" d="M512 426.667c0-128-106-234-234-234s-236 106-236 234h470zM512 426.667c-128 0-234 106-234 234s106 236 234 236v-470zM512 426.667c128 0 234-106 234-234s-106-236-234-236v470zM512 426.667c0 128 106 234 234 234s236-106 236-234h-470z" />
<glyph unicode="&#xe337;" glyph-name="devices_other" d="M930.315 147.79v372.562h-185.191v-372.562h185.191zM976.068 611.858q17.43 0 32.681-14.162t15.251-31.591v-464.068q0-17.43-15.251-32.681t-32.681-15.251h-278.877q-17.43 0-31.591 15.251t-14.162 32.681v464.068q0 17.43 14.162 31.591t31.591 14.162h278.877zM466.247 171.756q28.323 0 49.021 20.698t20.698 49.021-20.698 49.021-49.021 20.698-49.021-20.698-20.698-49.021 20.698-49.021 49.021-20.698zM557.753 426.667v-82.791q47.932-43.574 47.932-102.4 0-61.004-47.932-104.579v-82.791h-185.191v82.791q-45.753 41.396-45.753 104.579 0 61.004 45.753 102.4v82.791h185.191zM93.685 705.544v-557.753h185.191v-93.685h-185.191q-37.038 0-65.362 28.323t-28.323 65.362v557.753q0 37.038 28.323 65.362t65.362 28.323h836.63v-93.685h-836.63z" />
<glyph unicode="&#xe338;" glyph-name="videogame_asset" d="M832 426.667q28 0 46 18t18 46-18 46-46 18-46-18-18-46 18-46 46-18zM662 298.667q26 0 45 18t19 46-19 46-45 18-45-18-19-46 19-46 45-18zM470 384.667v84h-128v128h-86v-128h-128v-84h128v-128h86v128h128zM896 682.667q34 0 60-26t26-60v-340q0-34-26-60t-60-26h-768q-34 0-60 26t-26 60v340q0 34 26 60t60 26h768z" />
<glyph unicode="&#xe3a3;" glyph-name="blur_linear" d="M554 212.667q-18 0-30 13t-12 31 12 30 30 12 31-12 13-30-13-31-31-13zM554 384.667q-18 0-30 12t-12 30 12 30 30 12 31-12 13-30-13-30-31-12zM554 554.667q-18 0-30 12t-12 30 12 31 30 13 31-13 13-31-13-30-31-12zM726 404.667q-22 0-22 22t22 22q20 0 20-22t-20-22zM726 576.667q-22 0-22 20 0 22 22 22 20 0 20-22 0-20-20-20zM128 810.667h768v-86h-768v86zM726 234.667q-22 0-22 22 0 20 22 20 20 0 20-20 0-22-20-22zM384 212.667q-18 0-30 13t-12 31 12 30 30 12 30-12 12-30-12-31-30-13zM214 362.667q-26 0-45 18t-19 46 19 46 45 18 45-18 19-46-19-46-45-18zM214 532.667q-26 0-45 19t-19 45 19 45 45 19 45-19 19-45-19-45-45-19zM128 42.667v86h768v-86h-768zM384 554.667q-18 0-30 12t-12 30 12 31 30 13 30-13 12-31-12-30-30-12zM384 384.667q-18 0-30 12t-12 30 12 30 30 12 30-12 12-30-12-30-30-12zM214 192.667q-26 0-45 19t-19 45 19 45 45 19 45-19 19-45-19-45-45-19z" />
<glyph unicode="&#xe3a7;" glyph-name="brightness_2" d="M426 852.667c236 0 428-190 428-426s-192-426-428-426c-78 0-150 20-212 56 128 74 212 212 212 370s-84 296-212 370c62 36 134 56 212 56z" />
<glyph unicode="&#xe3ad;" glyph-name="broken_image" d="M839.111 457.334l163.556-163.556v-247.889q0-43.444-33.223-76.667t-76.667-33.223h-761.556q-43.444 0-76.667 33.223t-33.223 76.667v357.777l163.556-163.556 217.223 219.777 219.777-219.777zM1002.667 807.444v-357.777l-163.556 163.556-217.223-219.777-219.777 219.777-217.223-219.777-163.556 166.111v247.889q0 43.444 33.223 76.667t76.667 33.223h761.556q43.444 0 76.667-33.223t33.223-76.667z" />
<glyph unicode="&#xe3b3;" glyph-name="camera_roll" d="M854 554.667v86h-86v-86h86zM854 170.667v86h-86v-86h86zM682 554.667v86h-84v-86h84zM682 170.667v86h-84v-86h84zM512 554.667v86h-86v-86h86zM512 170.667v86h-86v-86h86zM598 724.667h340v-640h-340c0-46-40-84-86-84h-342c-46 0-84 38-84 84v640c0 46 38 86 84 86h44v42c0 24 18 44 42 44h170c24 0 44-20 44-44v-42h42c46 0 86-40 86-86z" />
<glyph unicode="&#xe3c1;" glyph-name="crop_din" d="M810 128.667v596h-596v-596h596zM810 810.667c46 0 86-40 86-86v-596c0-46-40-86-86-86h-596c-46 0-86 40-86 86v596c0 46 40 86 86 86h596z" />
<glyph unicode="&#xe3e3;" glyph-name="filter_vintage" d="M512 244.575q74.979 0 128.536 53.556t53.556 128.536-53.556 128.536-128.536 53.556-128.536-53.556-53.556-128.536 53.556-128.536 128.536-53.556zM68.552 171.738q0 81.406 48.201 155.314t127.464 99.615l-38.561 19.28q-64.268 38.561-100.686 101.757t-36.418 133.891q137.105 79.264 274.209 0 19.28-8.569 36.418-23.565-4.285 29.992-4.285 42.845 0 74.979 37.49 138.176t99.615 99.615q62.126-36.418 99.615-99.615t37.49-138.176q0-12.854-4.285-42.845 17.138 14.996 36.418 23.565 137.105 79.264 274.209 0 0-70.695-36.418-133.891t-100.686-101.757q-4.285-2.142-11.782-6.427t-13.925-7.498-12.854-5.356q6.427-2.142 12.854-5.356t13.925-7.498 11.782-6.427q64.268-38.561 100.686-101.757t36.418-133.891q-137.105-79.264-274.209 0-19.28 8.569-36.418 23.565 4.285-29.992 4.285-42.845 0-74.979-37.49-138.176t-99.615-99.615q-62.126 36.418-99.615 99.615t-37.49 138.176q0 12.854 4.285 42.845-17.138-14.996-36.418-23.565-137.105-79.264-274.209 0z" />
<glyph unicode="&#xe405;" glyph-name="music_note" d="M512 810.667h256v-170h-170v-428c0-94-78-170-172-170s-170 76-170 170 76 172 170 172c32 0 60-10 86-24v450z" />
<glyph unicode="&#xe406;" glyph-name="nature" d="M560.719 222.512v-192.555h296.952v-97.438h-691.342v97.438h296.952v194.875c-164.715 27.84-289.992 169.356-289.992 341.031 0 192.555 155.436 347.991 347.991 347.991s345.671-155.436 345.671-347.991c0-178.635-134.557-322.472-306.232-343.351z" />
<glyph unicode="&#xe407;" glyph-name="nature_people" d="M147.116 474.558c-41.049 0-72.977 31.928-72.977 72.977s31.928 72.977 72.977 72.977 72.977-31.928 72.977-72.977-31.928-72.977-72.977-72.977zM1006.875 563.499c0-175.6-132.271-316.994-301.030-337.519v-189.284h145.954v-95.783h-777.66v241.736h-47.891v196.125c0 27.367 20.525 47.891 47.891 47.891h145.954c27.367 0 47.891-20.525 47.891-47.891v-196.125h-47.891v-145.954h389.971v191.564c-161.917 27.367-285.066 166.479-285.066 335.238 0 189.284 152.795 342.079 342.079 342.079s339.799-152.795 339.799-342.079z" />
<glyph unicode="&#xe413;" glyph-name="photo_library" d="M86 682.667h84v-598h598v-84h-598c-46 0-84 38-84 84v598zM470 426.667l-128-170h512l-172 212-126-158zM938 256.667c0-46-38-86-84-86h-512c-46 0-86 40-86 86v512c0 46 40 84 86 84h512c46 0 84-38 84-84v-512z" />
<glyph unicode="&#xe416;" glyph-name="portrait" d="M810 128.667v596h-596v-596h596zM810 810.667c46 0 86-40 86-86v-596c0-46-40-86-86-86h-596c-46 0-86 40-86 86v596c0 46 40 86 86 86h596zM704 244.667v-32h-384v32c0 64 128 96 192 96s192-32 192-96zM512 416.667c-52 0-96 44-96 96s44 96 96 96 96-44 96-96-44-96-96-96z" />
<glyph unicode="&#xe418;" glyph-name="rotate_90_degrees_ccw" d="M826 654.667q112-112 112-271t-112-271q-110-112-272-112-98 0-184 48l64 62q54-26 120-26 124 0 212 88 86 86 86 210t-86 212q-88 88-212 88v-138l-180 180 180 182v-138q162 0 272-114zM158 388.667l156-156 156 156-156 156zM314 664.667l276-276-276-276-278 276z" />
<glyph unicode="&#xe42a;" glyph-name="view_comfortable" d="M768 724.667h170v-170h-170v170zM768 128.667v170h170v-170h-170zM554 128.667v170h172v-170h-172zM342 128.667v170h170v-170h-170zM128 128.667v170h170v-170h-170zM768 340.667v172h170v-172h-170zM554 724.667h172v-170h-172v170zM342 554.667v170h170v-170h-170zM554 340.667v172h172v-172h-172zM342 340.667v172h170v-172h-170zM128 340.667v172h170v-172h-170zM128 554.667v170h170v-170h-170z" />
<glyph unicode="&#xe42b;" glyph-name="view_compact" d="M128 724.667h810v-256h-810v256zM426 128.667v298h512v-298h-512zM128 128.667v298h256v-298h-256z" />
<glyph unicode="&#xe432;" glyph-name="photo_size_select_actual" d="M214 212.667h596l-192 256-148-192-108 128zM896 810.667c42 0 86-44 86-86v-596c0-42-44-86-86-86h-768c-46 0-86 40-86 86v596c0 42 44 86 86 86h768z" />
<glyph unicode="&#xe433;" glyph-name="photo_size_select_large" d="M128 128.667h426l-136 182-106-138-78 92zM42 468.667h598v-426h-512c-46 0-86 40-86 86v340zM214 810.667h84v-86h-84v86zM384 810.667h86v-86h-86v86zM128 810.667v-86h-86c0 42 44 86 86 86zM726 128.667h84v-86h-84v86zM726 810.667h84v-86h-84v86zM42 640.667h86v-86h-86v86zM896 810.667c42 0 86-44 86-86h-86v86zM896 640.667h86v-86h-86v86zM554 810.667h86v-86h-86v86zM982 128.667c0-42-44-86-86-86v86h86zM896 468.667h86v-84h-86v84zM896 298.667h86v-86h-86v86z" />
<glyph unicode="&#xe434;" glyph-name="photo_size_select_small" d="M298 810.667v-86h-84v86h84zM470 810.667v-86h-86v86h86zM128 468.667v-84h-86v84h86zM128 810.667v-86h-86c0 42 44 86 86 86zM810 128.667v-86h-84v86h84zM810 810.667v-86h-84v86h84zM640 128.667v-86h-86v86h86zM128 640.667v-86h-86v86h86zM128 42.667c-46 0-86 40-86 86v170h428v-256h-342zM896 810.667c42 0 86-44 86-86h-86v86zM982 640.667v-86h-86v86h86zM640 810.667v-86h-86v86h86zM982 128.667c0-42-44-86-86-86v86h86zM982 468.667v-84h-86v84h86zM982 298.667v-86h-86v86h86z" />
<glyph unicode="&#xe437;" glyph-name="crop_rotate" d="M342 256.667h512v-86h-86v-86h-86v86h-340q-36 0-61 26t-25 60v340h-86v86h86v86h86v-512zM682 340.667v256h-256v86h256q34 0 60-25t26-61v-256h-86zM514 938.667q200 0 347-136t163-334h-64q-12 120-80 216t-174 146l-58-56-162 162q6 0 14 1t14 1zM318 22.667l58 56 162-162q-6 0-14-1t-14-1q-200 0-347 136t-163 334h64q12-120 80-216t174-146z" />
<glyph unicode="&#xe439;" glyph-name="add_a_photo" d="M418 340.667q0 58 40 98t96 40q58 0 98-40t40-98q0-56-40-96t-98-40-97 39-39 97zM554 128.667q88 0 151 62t63 150-63 151-151 63-150-63-62-151 62-150 150-62zM256 512.667v128h128v128h298l78-86h136q34 0 60-26t26-60v-512q0-34-26-59t-60-25h-682q-34 0-60 25t-26 59v428h128zM128 768.667v128h86v-128h128v-86h-128v-128h-86v128h-128v86h128z" />
<glyph unicode="&#xe43a;" glyph-name="movie_filter" d="M644 418.667l50 22-50 22-22 50-22-50-50-22 50-22 22-50zM488 268.667l98 46-98 44-46 100-44-100-100-44 100-46 44-98zM768 768.667h170v-598q0-34-25-60t-59-26h-684q-34 0-59 26t-25 60v512q0 34 25 60t59 26h44l84-172h128l-84 172h84l86-172h128l-86 172h86l86-172h128z" />
<glyph unicode="&#xe43b;" glyph-name="photo_filter" d="M812 512.667h84v-384q0-34-25-60t-59-26h-598q-34 0-60 26t-26 60v596q0 34 26 60t60 26h384v-86h-384v-596h598v384zM528 660.667l52-112 110-50-110-50-52-112-50 112-112 50 112 50zM730 558.667l-24 56-56 26 56 24 24 56 26-56 56-24-56-26z" />
<glyph unicode="&#xe52e;" glyph-name="directions" d="M598 320.667l148 148-148 150v-106h-214c-24 0-42-20-42-44v-170h84v128h172v-106zM926 456.667c16-18 16-44 0-60l-384-384c-16-16-44-16-60 0l-384 384c-16 16-16 44 0 60l384 384c16 16 44 16 60 0z" />
<glyph unicode="&#xe546;" glyph-name="local_gas_station" d="M768 512.667c24 0 42 18 42 42s-18 42-42 42-42-18-42-42 18-42 42-42zM512 512.667v212h-256v-212h256zM844 630.667c20-20 30-46 30-76v-406c0-58-48-106-106-106s-106 48-106 106v214h-64v-320h-428v682c0 46 40 86 86 86h256c46 0 86-40 86-86v-298h42c46 0 86-40 86-86v-192c0-24 18-42 42-42s42 18 42 42v308c-14-6-26-8-42-8-58 0-106 48-106 106 0 46 28 84 68 100l-90 90 46 44z" />
<glyph unicode="&#xe55c;" glyph-name="my_location" d="M512 128.667q124 0 211 87t87 211-87 211-211 87-211-87-87-211 87-211 211-87zM894 468.667h88v-84h-88q-14-134-110-230t-230-110v-88h-84v88q-134 14-230 110t-110 230h-88v84h88q14 134 110 230t230 110v88h84v-88q134-14 230-110t110-230zM512 596.667q70 0 120-50t50-120-50-120-120-50-120 50-50 120 50 120 120 50z" />
<glyph unicode="&#xe562;" glyph-name="satellite" d="M214 170.667h596l-192 256-148-192-108 128zM214 426.667c166 0 298 134 298 300h-86c0-118-94-214-212-214v-86zM214 726.667v-130c70 0 128 60 128 130h-128zM810 810.667c46 0 86-40 86-86v-596c0-46-40-86-86-86h-596c-46 0-86 40-86 86v596c0 46 40 86 86 86h596z" />
<glyph unicode="&#xe566;" glyph-name="directions_run" d="M422 112.667l-298 58 16 86 210-42 68 346-78-30v-146h-84v200l222 94c12 0 22 4 34 4 30 0 54-16 72-42l42-68c34-60 102-102 184-102v-86c-94 0-178 42-234 106l-26-128 90-84v-320h-86v256l-90 84zM576 704.667c-46 0-86 40-86 86s40 84 86 84 84-38 84-84-38-86-84-86z" />
<glyph unicode="&#xe569;" glyph-name="near_me" d="M896 810.667l-322-768h-42l-112 292-292 112v42z" />
<glyph unicode="&#xe56a;" glyph-name="person_pin_circle" d="M512 323.305q132.207 0 204.319 110.573 0 45.671-70.911 75.718t-133.408 30.047-133.408-30.047-70.911-75.718q72.113-110.573 204.319-110.573zM512 837.709q-40.864 0-72.113-31.249t-31.249-72.113q0-43.268 31.249-73.315t72.113-30.047 72.113 30.047 31.249 73.315q0 40.864-31.249 72.113t-72.113 31.249zM512 938.667q149.033 0 253.596-104.563t104.563-253.596q0-74.516-37.258-170.667t-90.141-180.282-104.563-157.446-87.737-116.582l-38.46-40.864q-14.423 16.826-38.46 44.469t-86.535 110.573-109.371 161.052-85.333 176.676-38.46 173.070q0 149.033 104.563 253.596t253.596 104.563z" />
<glyph unicode="&#xe56b;" glyph-name="zoom_out_map" d="M896 298.667v-256h-256l98 98-124 122 62 62 122-124zM384 42.667h-256v256l98-98 122 124 62-62-124-122zM128 554.667v256h256l-98-98 124-122-62-62-122 124zM640 810.667h256v-256l-98 98-122-124-62 62 124 122z" />
<glyph unicode="&#xe56c;" glyph-name="restaurant" d="M682 682.667c0 76 96 170 214 170v-852h-106v340h-108v342zM470 554.667v298h84v-298c0-90-70-164-160-170v-384h-106v384c-90 6-160 80-160 170v298h86v-298h84v298h86v-298h86z" />
<glyph unicode="&#xe56f;" glyph-name="subway" d="M793.64 244.041v323.446c0 123.218-125.418 140.82-281.64 140.82-140.82 0-281.64-17.602-281.64-140.82v-323.446c0-68.21 55.008-123.218 123.218-123.218l-52.808-52.808v-17.602h79.212l70.41 70.41h132.018l70.41-70.41h70.41v17.602l-52.808 52.808c68.21 0 123.218 55.008 123.218 123.218zM784.838 857.929c125.418-48.406 195.828-151.822 195.828-283.84v-616.088h-937.334v616.088c0 132.018 70.41 235.434 195.828 283.84 83.612 33.004 184.826 37.406 272.838 37.406s189.226-4.4 272.838-37.406zM278.766 567.487h468.666v-235.434h-468.666v235.434zM300.77 239.641c0 26.404 19.802 46.206 46.206 46.206s48.406-19.802 48.406-46.206-22.004-48.406-48.406-48.406-46.206 22.004-46.206 48.406zM628.616 239.641c0 26.404 22.004 46.206 48.406 46.206s46.206-19.802 46.206-46.206-19.802-48.406-46.206-48.406-48.406 22.004-48.406 48.406z" />
<glyph unicode="&#xe570;" glyph-name="train" d="M734.342 156.501c41.688 0 74.113 32.425 74.113 74.113s-32.425 74.113-74.113 74.113-74.113-32.425-74.113-74.113 32.425-74.113 74.113-74.113zM560.636 503.907h247.816v196.865h-247.816v-196.865zM463.364 503.907v196.865h-247.816v-196.865h247.816zM289.658 156.501c41.688 0 74.113 32.425 74.113 74.113s-32.425 74.113-74.113 74.113-74.113-32.425-74.113-74.113 32.425-74.113 74.113-74.113zM512 897.637c217.709 0 396.045-23.159 396.045-196.865v-470.158c0-94.957-78.746-171.388-173.703-171.388l74.113-74.113v-25.477h-99.59l-97.275 99.59h-187.599l-97.275-99.59h-111.171v25.477l74.113 74.113c-94.957 0-173.703 76.431-173.703 171.388v470.158c0 173.703 199.18 196.865 396.045 196.865z" />
<glyph unicode="&#xe571;" glyph-name="tram" d="M747.434 332.053v235.434h-470.866v-235.434h470.866zM512 120.823c39.606 0 70.41 30.804 70.41 70.41s-30.804 70.41-70.41 70.41-70.41-30.804-70.41-70.41 30.804-70.41 70.41-70.41zM839.846 195.635c0-79.212-41.806-145.22-121.018-145.22h4.4l70.41-70.41v-22.004h-94.614l-92.414 92.414h-178.226l-92.414-92.414h-105.616v22.004l74.81 74.81c-66.010 15.402-121.018 72.61-121.018 140.82v396.056c0 129.818 132.018 158.422 279.44 162.824l37.406 70.41h-224.432v70.41h470.866v-70.41h-154.022l-35.206-70.41c160.622-4.4 281.64-30.804 281.64-162.824v-396.056z" />
<glyph unicode="&#xe5c5;" glyph-name="arrow_drop_down" d="M298 512.667h428l-214-214z" />
<glyph unicode="&#xe5c7;" glyph-name="arrow_drop_up" d="M298 340.667l214 214 214-214h-428z" />
<glyph unicode="&#xe5d3;" glyph-name="more_horiz" d="M512 512.667c46 0 86-40 86-86s-40-86-86-86-86 40-86 86 40 86 86 86zM768 512.667c46 0 86-40 86-86s-40-86-86-86-86 40-86 86 40 86 86 86zM256 512.667c46 0 86-40 86-86s-40-86-86-86-86 40-86 86 40 86 86 86z" />
<glyph unicode="&#xe5d8;" glyph-name="arrow_upward" d="M170 426.667l342 342 342-342-62-60-238 238v-520h-84v520l-240-238z" />
<glyph unicode="&#xe5d9;" glyph-name="subdirectory_arrow_left" d="M470 554.667l60-60-154-154h392v428h86v-512h-478l154-154-60-60-256 256z" />
<glyph unicode="&#xe5da;" glyph-name="subdirectory_arrow_right" d="M810 298.667l-256-256-60 60 154 154h-478v512h86v-428h392l-154 154 60 60z" />
<glyph unicode="&#xe5db;" glyph-name="arrow_downward" d="M854 426.667l-342-342-342 342 62 60 238-238v520h84v-520l240 238z" />
<glyph unicode="&#xe600;" glyph-name="language2" d="M1011.354 415.693c-31.949 87.45-121.19 139.622-238.694 139.622-4.557 0-9.011-0.154-13.414-0.358l-0.768 105.574c0 0 174.541 30.157 180.429 31.181s6.861 6.093 5.632 11.776c-1.178 5.683-8.55 45.261-9.626 50.022-1.434 6.656-5.274 6.502-10.598 5.581s-166.451-23.654-166.451-23.654-0.563 100.045-0.614 106.445c-0.051 6.4-3.584 8.141-9.933 8.038-6.4-0.102-47.155-0.717-52.531-0.819-5.376-0.051-8.346-2.509-8.243-7.629s1.69-118.067 1.69-118.067-156.774-27.085-161.075-27.802-8.704-2.765-7.68-7.322c0.973-4.557 9.728-55.962 10.65-60.006 0.87-4.045 3.635-6.502 9.574-5.478s149.76 25.856 149.76 25.856l1.792-103.322c-55.142-14.49-92.211-42.189-115.507-66.714-39.322-41.318-61.798-96.614-61.798-151.706 0-81.306 49.664-129.485 119.142-137.984 161.946-19.814 262.093 156.621 295.424 241.357 56.218-77.056 13.158-222.925-107.213-306.125-2.15-1.587-4.966-6.605-1.638-10.598s27.648-33.894 31.693-38.81c4.045-4.813 10.547-2.918 13.107-1.075 128.512 88.422 187.392 231.014 146.893 342.016zM633.139 252.518c-49.408 6.195-48.282 46.797-48.282 74.394 0 39.578 16.742 80.896 44.8 110.387 17.203 18.074 38.4 31.795 62.925 40.909l4.198-218.982c-19.61-6.707-40.806-9.523-63.642-6.707zM757.453 280.781l2.304 210.381c4.301 0.205 8.55 0.512 12.902 0.512 39.578 0 76.544-7.424 96.563-18.534s-52.378-138.854-111.77-192.358zM299.162 673.382c-1.536 4.813-5.222 7.373-9.984 7.373h-99.84c-4.71 0-8.448-2.56-9.933-7.373-21.043-66.509-178.227-562.79-178.995-565.299-0.87-2.714-0.563-3.891 3.174-3.891h88.73c3.84 0 5.069 1.178 5.786 3.686 0.819 2.611 51.661 169.882 51.661 169.882h178.995c0 0 50.842-167.322 51.61-169.882 0.819-2.509 1.946-3.686 5.837-3.686h88.678c3.789 0 4.096 1.178 3.174 3.891-0.666 2.509-157.798 498.79-178.893 565.299zM165.222 349.901l74.086 268.8 74.035-268.8h-148.122z" />
<glyph unicode="&#xe601;" glyph-name="arrow-left2" d="M761.561 39.966c15.204-15.374 15.204-40.166 0-55.54s-39.768-15.374-54.973 0l-444.206 448.574c-15.204 15.374-15.204 40.223 0 55.54l444.206 448.632c15.204 15.374 39.768 15.374 54.973 0s15.204-40.166 0-55.54l-405.061-420.834 405.061-420.834z" />
<glyph unicode="&#xe602;" glyph-name="arrow-down2" d="M91.166 710.361c-15.374 15.204-40.223 15.204-55.54 0-15.318-15.146-15.318-39.768 0-54.973l448.632-444.206c15.374-15.204 40.166-15.204 55.54 0l448.632 444.206c15.318 15.204 15.374 39.768 0 54.973s-40.279 15.204-55.54 0.057l-420.889-405.118-420.834 405.061z" />
<glyph unicode="&#xe603;" glyph-name="arrow-up2" d="M932.834 211.239c15.374-15.204 40.223-15.204 55.54 0 15.374 15.204 15.374 39.768 0 54.973l-448.632 444.206c-15.318 15.204-40.166 15.204-55.483 0l-448.632-444.206c-15.318-15.204-15.374-39.768 0-54.973s40.166-15.204 55.54 0l420.834 405.118 420.834-405.118z" />
<glyph unicode="&#xe604;" glyph-name="phone" d="M574.925 397.875c-81.050-81.101-174.95-158.618-212.070-121.446-53.146 53.094-85.862 99.379-203.008 5.274s-27.187-156.877 24.32-208.384c59.392-59.341 280.781-3.123 499.661 215.706 218.778 218.829 275.098 440.269 215.654 499.661-51.456 51.507-114.176 141.414-208.333 24.32s-47.872-149.862 5.274-203.008c37.018-37.171-40.448-131.021-121.498-212.122z" />
<glyph unicode="&#xe605;" glyph-name="arrow-right2" d="M262.364 39.966c-15.204-15.374-15.204-40.166 0-55.54s39.768-15.374 54.973 0l444.206 448.574c15.204 15.374 15.204 40.223 0 55.54l-444.206 448.632c-15.204 15.374-39.768 15.374-54.973 0s-15.204-40.166 0-55.54l405.061-420.834-405.061-420.834z" />
<glyph unicode="&#xe606;" glyph-name="directions2" d="M435.2 921.6h-46.029c-11.315 0-20.531-9.216-20.531-20.48v-194.56h-181.043c-8.448 0-18.944-1.946-28.979-5.018-10.138-3.123-19.814-7.424-26.726-12.134l-121.6-83.456c-6.861-4.71-10.291-10.906-10.291-17.152s3.43-12.442 10.291-17.152l121.6-83.456c6.912-4.71 16.589-9.011 26.726-12.134 10.035-3.072 20.531-5.018 28.979-5.018h181.043v-450.56c0-11.315 9.216-20.48 20.48-20.48h46.080c11.315 0 20.48 9.216 20.48 20.48v880.64c0 11.264-9.165 20.48-20.48 20.48zM1013.709 708.301l-121.6 83.456c-6.861 4.71-16.538 9.011-26.675 12.134-10.086 3.123-20.582 5.069-29.030 5.069h-350.003l41.011-235.52h308.992c8.448 0 18.944 1.946 29.030 5.018s19.814 7.424 26.675 12.083l121.6 83.456c6.912 4.762 10.291 10.957 10.291 17.203s-3.379 12.442-10.291 17.101z" />
<glyph unicode="&#xe607;" glyph-name="feather" d="M217.805-39.014c15.667 51.251 39.424 123.443 71.219 227.891 138.547 22.374 195.891-17.869 283.904 142.541-71.424-22.323-157.542 41.421-152.883 69.018 4.608 27.648 200.346-19.917 328.448 165.786-161.485-36.301-213.197 43.674-192.358 55.757 48.077 27.904 190.822 11.571 266.906 87.194 39.219 38.912 57.549 133.581 41.626 167.373-19.2 40.755-136.038 101.581-200.448 95.898-64.41-5.734-165.427-250.317-195.379-248.371s-35.942 109.517 16.333 209.562c-55.142-24.883-156.16-102.349-187.853-168.55-59.034-123.187 5.53-405.658-15.155-415.744-20.736-10.035-90.419 129.69-111.206 193.024-28.416-97.075-29.082-194.355 53.965-323.584-31.334-84.787-48.435-182.374-51.046-231.987-1.229-39.731 37.018-48.23 43.93-25.805z" />
<glyph unicode="&#xe608;" glyph-name="vcard" d="M921.6 870.4h-819.2c-56.32 0-102.4-46.080-102.4-102.4v-614.4c0-56.32 46.080-102.4 102.4-102.4h819.2c56.371 0 102.4 46.080 102.4 102.4v614.4c0 56.32-46.029 102.4-102.4 102.4zM921.6 153.6h-819.2v614.4h819.2v-614.4zM460.8 353.28h-256v-92.16h256v92.16zM460.8 506.88h-256v-92.16h256v92.16zM460.8 660.48h-256v-92.16h256v92.16zM814.080 332.8c0 0-87.040 22.733-87.040 67.482 0 42.598 56.371 60.518 56.371 147.558 0 70.656-21.504 112.64-92.211 112.64s-92.16-41.933-92.16-112.64c0-87.040 56.32-104.96 56.32-147.558 0-44.749-86.989-67.482-86.989-67.482-5.171 0-5.171-71.68-5.171-71.68h256c0 0 0 71.68-5.12 71.68z" />
<glyph unicode="&#xe609;" glyph-name="export" d="M768 163.84h-665.6v460.8h132.864c0 0 35.277 45.875 111.104 102.4h-295.168c-28.262 0-51.2-22.938-51.2-51.2v-563.2c0-28.314 22.938-51.2 51.2-51.2h768c28.314 0 51.2 22.886 51.2 51.2v191.795l-102.4-84.224v-56.371zM684.134 519.68v-181.76l339.866 266.291-339.866 255.949v-160.256c-412.774-0.051-412.774-408.064-412.774-408.064 116.838 191.898 188.723 227.84 412.774 227.84z" />
<glyph unicode="&#xe60a;" glyph-name="shopping-basket" d="M743.958 560.232l-195.005 291.84c-8.459 12.911-22.706 18.921-36.953 18.921s-28.494-6.233-36.953-18.921l-195.005-291.84h-213.259c-24.487 0-44.522-20.035-44.522-44.522 0-4.229 0.668-8.236 1.558-12.021l112.863-412.717c10.463-37.398 44.967-65.001 85.927-65.001h578.783c40.96 0 75.464 27.603 85.704 65.225l112.863 412.717c1.113 3.561 1.781 7.568 1.781 11.799 0 24.487-20.035 44.522-44.522 44.522h-213.259zM378.435 560.232l133.565 195.895 133.565-195.895h-267.13zM512 204.059c-49.197 0-89.043 39.847-89.043 89.043s39.847 89.043 89.043 89.043 89.043-39.847 89.043-89.043-39.847-89.043-89.043-89.043z" />
<glyph unicode="&#xe60b;" glyph-name="chat2" d="M296.96 348.16v317.44h-194.56c-56.32 0-102.4-46.080-102.4-102.4v-307.2c0-56.32 46.080-102.4 102.4-102.4h51.2v-153.6l153.6 153.6h256c56.32 0 102.4 46.080 102.4 102.4v93.184c-3.277-0.717-6.758-1.075-10.24-1.075h-358.4zM921.6 921.6h-460.8c-56.32 0-102.4-46.080-102.4-102.4v-409.6h358.4l153.6-153.6v153.6h51.2c56.32 0 102.4 46.080 102.4 102.4v307.2c0 56.32-46.080 102.4-102.4 102.4z" />
<glyph unicode="&#xe60c;" glyph-name="comment" d="M819.2 819.2h-614.4c-56.32 0-102.4-46.080-102.4-102.4v-358.4c0-56.32 46.080-102.4 102.4-102.4h204.8l204.8-153.6v153.6h204.8c56.32 0 102.4 46.080 102.4 102.4v358.4c0 56.32-46.080 102.4-102.4 102.4z" />
<glyph unicode="&#xe60d;" glyph-name="tag" d="M987.699 952.013c-5.53 16.128-22.989 24.627-38.963 19.046s-24.371-23.245-18.79-39.424c47.104-136.704-46.387-238.797-117.606-293.427l-28.826 41.677c-9.626 13.926-31.334 25.549-48.128 25.805l-161.536-0.768c-16.794 0.256-41.779-7.526-55.603-17.254l-475.955-337.306c-23.040-16.333-28.723-48.486-12.544-71.834l216.371-312.678c16.128-23.347 42.086-20.531 65.126-4.25l475.955 337.357c13.824 9.728 29.542 30.925 35.123 47.002l50.586 161.075c5.478 16.077 2.15 40.653-7.475 54.579l-17.613 25.395c95.693 73.984 195.021 204.902 139.878 365.005zM766.259 472.986c-36.915-26.163-87.757-17.050-113.613 20.275-25.805 37.325-16.845 88.781 20.070 114.944 29.286 20.787 67.328 19.251 94.72-0.922-13.824-8.397-23.245-13.21-25.037-14.080-15.258-7.27-21.811-25.702-14.592-41.165 5.222-11.213 16.179-17.818 27.699-17.818 4.352 0 8.806 0.973 13.005 2.97 9.779 4.659 20.378 10.342 31.386 16.947 4.915-30.362-7.066-62.31-33.638-81.152z" />
<glyph unicode="&#xe60e;" glyph-name="leaf" d="M272.384 762.675c-195.686-113.562-184.422-298.496-177.664-366.899 252.774 299.366 630.835 284.826 630.835 284.826s-535.962-183.757-693.402-552.397c-12.39-29.184 58.368-67.021 74.496-32.614 48.179 102.502 115.354 179.405 115.354 179.405 99.123-36.915 270.49-80.077 392.038 5.376 161.331 113.613 144.845 365.363 375.245 487.936 53.811 28.672-451.584 148.326-716.902-5.632z" />
<glyph unicode="&#xe60f;" glyph-name="newspaper" d="M819.2 921.6h-614.4c-56.32 0-102.4-46.080-102.4-102.4v-716.8c0-56.32 46.080-102.4 102.4-102.4h614.4c56.371 0 102.4 46.080 102.4 102.4v716.8c0 56.32-46.029 102.4-102.4 102.4zM819.2 102.4h-614.4v716.8h614.4v-716.8zM563.2 358.4h-256v-51.2h256v51.2zM716.8 563.2h-204.8v-51.2h204.8v51.2zM512 614.4h204.8v102.4h-204.8v-102.4zM460.8 716.8h-153.6v-204.8h153.6v204.8zM409.6 460.8h-102.4v-51.2h102.4v51.2zM460.8 409.6h256v51.2h-256v-51.2zM716.8 256h-409.6v-51.2h409.6v51.2zM614.4 307.2h102.4v51.2h-102.4v-51.2z" />
<glyph unicode="&#xe610;" glyph-name="lifebuoy" d="M505.702 931.789c-260.096-3.482-468.173-217.139-464.691-477.286 3.482-260.198 217.19-468.173 477.286-464.742 260.147 3.482 468.224 217.19 464.691 477.286-3.482 260.198-217.19 468.224-477.286 464.742zM506.573 870.4c70.144 0.973 136.397-15.872 194.56-46.131l-63.386-105.677c-37.99 18.483-80.64 28.928-125.747 28.928-45.056 0-87.706-10.445-125.696-28.979l-63.334 105.626c54.989 28.672 117.35 45.312 183.603 46.234zM254.259 335.104l-105.574-63.283c-28.672 54.938-45.312 117.299-46.182 183.501-0.973 70.195 15.872 136.448 46.131 194.56l105.626-63.437c-18.534-37.939-28.979-80.538-28.979-125.645 0-45.056 10.445-87.706 28.979-125.696zM517.478 51.251c-70.144-0.973-136.448 15.872-194.56 46.131l63.386 105.677c37.99-18.534 80.64-28.979 125.696-28.979 45.107 0 87.757 10.394 125.696 28.928l63.334-105.574c-54.989-28.621-117.299-45.261-183.552-46.182zM512 235.571c-124.416 0-225.229 100.864-225.229 225.229 0 124.416 100.864 225.28 225.229 225.28 124.467 0 225.28-100.864 225.28-225.28s-100.813-225.229-225.28-225.229zM769.741 335.104c18.534 37.99 28.979 80.64 28.979 125.696 0 45.107-10.445 87.706-28.979 125.696l105.574 63.386c28.672-54.989 45.363-117.299 46.234-183.552 0.922-70.195-15.923-136.448-46.182-194.56l-105.626 63.334z" />
<glyph unicode="&#xe611;" glyph-name="calendar" d="M870.4 819.2h-46.080v-102.4h-163.84v102.4h-296.96v-102.4h-163.84v102.4h-46.080c-56.32 0-102.4-46.080-102.4-102.4v-614.4c0-56.32 46.080-102.4 102.4-102.4h716.8c56.32 0 102.4 46.080 102.4 102.4v614.4c0 56.32-46.080 102.4-102.4 102.4zM870.4 102.4h-716.8v409.6h716.8v-409.6zM317.44 921.6h-71.68v-174.080h71.68v174.080zM778.24 921.6h-71.68v-174.080h71.68v174.080z" />
<glyph unicode="&#xe612;" glyph-name="briefcase" d="M465.92 409.498h92.16v-102.4h465.92c0 0-7.578 228.25-10.24 299.725-2.509 67.891-26.778 109.875-102.4 109.875h-164.25c-25.446 47.974-52.838 99.584-61.235 115.456-16.947 31.949-22.733 38.144-60.416 38.144h-226.918c-37.683 0-43.469-6.195-60.416-38.144-8.397-15.872-35.789-67.482-61.235-115.456h-164.25c-75.622 0-99.584-41.984-102.4-109.875s-10.24-299.725-10.24-299.725h465.92v102.4zM391.68 772.25c11.725 22.118 15.77 26.419 41.779 26.419h157.030c26.112 0 30.106-4.301 41.779-26.419 4.403-8.294 16.282-30.72 29.491-55.501h-299.52c13.158 24.73 25.037 47.155 29.44 55.501zM558.080 153.498h-92.16v102.4h-440.32c0 0 6.4-92.058 10.24-170.086 1.587-32.41 11.11-85.914 92.109-85.914h768.102c80.998 0 90.317 53.555 92.109 85.914 4.454 80.23 10.24 170.086 10.24 170.086h-440.32v-102.4z" />
<glyph unicode="&#xe613;" glyph-name="hourglass" d="M798.72 738.406c0 109.568 0 120.269 0 120.269 0 40.448-128.358 114.125-286.72 114.125s-286.72-73.677-286.72-114.125c0 0 0-10.701 0-120.269s198.502-200.038 198.502-277.606c0-77.619-198.502-168.038-198.502-277.658 0-109.568 0-120.269 0-120.269 0-40.397 128.358-114.074 286.72-114.074s286.72 73.677 286.72 114.125c0 0 0 10.701 0 120.269 0 109.619-198.451 200.038-198.451 277.658 0 77.517 198.451 168.038 198.451 277.555zM304.128 853.555c35.635 22.477 102.451 55.45 210.637 55.45 108.237 0 205.107-55.45 205.107-55.45 7.27-4.403 35.738-19.661 16.23-31.181-42.957-25.446-126.925-52.224-224.154-52.224s-178.33 29.542-221.286 54.989c-19.507 11.571 13.466 28.416 13.466 28.416zM537.651 460.8c0-61.082 50.995-100.403 105.062-152.883 39.475-38.349 93.44-90.829 93.44-124.774v-67.994c-49.613 24.73-198.195 48.947-198.195 128.205 0 40.141-51.917 40.141-51.917 0 0-79.258-148.582-103.475-198.195-128.205v67.994c0 33.894 54.016 86.426 93.491 124.774 54.016 52.48 105.011 91.802 105.011 152.883s-50.995 100.403-105.011 152.883c-39.475 38.349-93.491 90.88-93.491 124.723l-2.406 51.2c52.531-28.262 135.834-55.245 226.56-55.245s174.438 26.982 226.97 55.245l-2.816-51.2c0-33.843-54.016-86.374-93.44-124.723-54.067-52.48-105.062-91.802-105.062-152.883z" />
<glyph unicode="&#xe614;" glyph-name="gauge" d="M416.154 266.138c-35.328-61.235-11.571-111.616 37.427-139.878s104.55-23.757 139.878 37.478c35.328 61.184 258.406 607.539 239.002 618.752-19.354 11.213-380.979-455.117-416.307-516.352zM512 655.258c22.426 0 44.288-1.946 65.587-5.53 22.426 28.058 47.565 58.982 71.987 88.422-43.622 12.646-89.651 19.507-137.574 19.507-287.078 0-512-242.074-512-551.117 0-19.046 0.87-38.042 2.509-56.576 2.509-28.16 27.648-48.896 55.552-46.438 28.16 2.56 48.947 27.392 46.438 55.552-1.382 15.514-2.099 31.488-2.099 47.462 0 251.597 179.968 448.717 409.6 448.717zM881.613 591.309c-14.285-38.4-29.389-77.517-42.701-111.36 52.070-75.264 82.688-169.626 82.688-273.408 0-16.23-0.717-32.563-2.15-48.384-2.56-28.16 18.176-53.043 46.336-55.654 1.587-0.154 3.123-0.205 4.71-0.205 26.163 0 48.486 20.019 50.893 46.541 1.741 18.944 2.611 38.349 2.611 57.702 0 151.091-53.862 286.157-142.387 384.768z" />
<glyph unicode="&#xe615;" glyph-name="network" d="M269.978 618.803c10.291 0 20.224-1.536 29.542-4.454 35.328 39.578 74.496 75.622 116.89 107.571-1.741 7.424-2.816 15.206-2.816 23.245 0 11.162 1.843 21.811 5.222 31.744-47.462 34.099-99.174 62.669-154.061 84.787-51.558-31.846-96.461-73.37-132.25-122.010 26.573-47.053 58.214-90.931 94.106-130.918 13.158 6.4 27.853 10.035 43.366 10.035zM169.779 518.605c0 14.029 2.918 27.443 8.141 39.578-32.102 35.328-61.286 73.421-86.835 114.074-32-63.59-50.125-135.424-50.125-211.456 0-88.115 24.269-170.496 66.355-240.998 15.002 84.736 43.571 164.864 82.944 238.285-12.8 16.794-20.48 37.734-20.48 60.518zM513.792 845.414c26.522 0 50.483-10.342 68.403-27.085 52.275 22.477 107.366 39.731 164.659 50.739-69.171 39.834-149.299 62.771-234.854 62.771-58.317 0-114.125-10.701-165.632-30.106 40.909-20.224 79.923-43.725 116.531-70.349 14.95 8.858 32.307 14.029 50.893 14.029zM663.706 373.35c6.246 13.005 15.104 24.474 26.061 33.587-29.594 91.034-76.442 174.285-136.806 245.965-12.032-5.12-25.242-7.936-39.168-7.936-21.709 0-41.779 7.014-58.214 18.739-36.352-27.597-69.939-58.573-100.506-92.365 9.523-15.309 15.104-33.331 15.104-52.736 0-10.496-1.587-20.531-4.557-30.054 87.91-58.726 189.082-99.021 298.086-115.2zM793.702 238.029c1.331-18.944 2.099-38.093 2.099-57.395 0-34.048-2.202-67.482-6.298-100.403 79.923 58.368 140.698 141.158 171.418 237.517-36.352-8.806-73.626-15.104-111.667-18.739-8.96-27.392-29.338-49.613-55.552-60.979zM640.205 306.022c-116.275 19.251-224.102 63.59-317.901 127.181-15.258-9.37-33.075-14.848-52.275-14.848-7.066 0-13.875 0.768-20.531 2.15-44.902-85.197-73.626-180.224-81.92-280.883 44.851-48.077 99.584-86.784 161.075-112.794 76.288 117.299 182.989 214.426 311.552 279.194zM828.211 809.882c-75.469-7.27-147.558-26.214-214.682-54.682 0.41-3.277 0.563-6.656 0.563-10.035 0-15.821-3.738-30.72-10.291-43.981 67.072-78.746 119.142-170.496 152.064-270.899 40.704-0.768 75.571-25.702 90.573-61.184 45.363 4.608 89.498 13.312 132.045 25.805 2.918 21.504 4.557 43.469 4.557 65.894 0 138.445-59.75 262.963-154.829 349.082zM690.637 252.467c-120.064-56.218-220.365-142.797-293.069-248.627 36.608-9.165 74.957-14.080 114.432-14.080 71.117 0 138.394 15.821 198.81 43.981 9.677 47.462 14.848 96.563 14.848 146.893 0 18.125-0.87 36.147-2.202 54.016-12.083 3.84-23.194 9.933-32.819 17.818z" />
<glyph unicode="&#xe616;" glyph-name="key" d="M905.728 730.829c-25.702 152.474-164.864 254.31-310.733 227.379-145.92-26.88-269.005-144.179-243.302-296.653 5.581-32.819 20.89-84.224 39.066-121.088l-264.96-395.418c-9.779-14.592-15.309-40.909-12.39-58.419l17.050-100.915c2.97-17.51 19.098-29.286 35.84-26.214l77.619 14.285c16.794 3.123 38.042 17.869 47.309 32.819l105.728 170.547 70.912 13.107 122.317 198.554c40.243-7.117 97.894-4.71 131.994 1.587 145.971 26.931 209.306 187.955 183.552 340.429zM776.499 652.698c-40.141-59.853-81.050-17.664-138.394 24.32-57.293 41.933-109.312 67.738-69.171 127.59 40.141 59.904 119.091 74.496 176.435 32.512 57.344-41.933 71.27-124.57 31.13-184.422z" />
<glyph unicode="&#xe617;" glyph-name="suitcase" d="M921.6 768h-51.2v-768h51.2c56.32 0 102.4 46.080 102.4 102.4v563.2c0 56.32-46.080 102.4-102.4 102.4zM0 665.6v-563.2c0-56.32 46.080-102.4 102.4-102.4h51.2v768h-51.2c-56.32 0-102.4-46.080-102.4-102.4zM686.080 875.162c-34.867 16.23-90.522 46.438-174.080 46.438s-139.213-30.208-174.080-46.438v-107.162h-112.64v-768h573.44v768h-112.64v107.162zM624.64 768h-225.28v68.352c27.29 11.776 66.458 23.808 112.64 23.808s85.299-11.981 112.64-23.757v-68.403z" />
<glyph unicode="&#xe618;" glyph-name="box2" d="M42.667 725.334l469.333 213.333 469.333-213.333v-597.333l-469.333-213.333-469.333 213.333v597.333zM469.333 484.667l-341.333 155v-456.667l341.333-155.333v457zM896 183v456.667l-341.333-155v-457zM826.667 702l-314.667 143-314.667-143 314.667-143z" />
<glyph unicode="&#xe61a;" glyph-name="light-bulb" d="M367.872-8.704c40.397-26.112 87.194-43.776 144.128-42.394 56.934-1.382 103.68 16.282 144.077 42.394v105.984h-288.205v-105.984zM650.035 158.771c0 223.027 237.107 294.4 219.341 516.557-11.162 140.186-106.138 297.472-357.376 297.472s-346.214-157.286-357.376-297.472c-17.766-222.208 219.29-293.53 219.29-516.557h276.122zM263.066 667.238c10.65 133.069 101.171 200.55 248.934 200.55s238.285-67.482 248.883-200.55c5.786-72.858-36.096-121.446-92.672-201.011-41.626-58.675-90.88-127.949-113.92-218.163h-84.634c-23.040 90.214-72.243 159.437-113.971 218.163-56.525 79.616-98.406 128.154-92.621 201.011z" />
<glyph unicode="&#xe61b;" glyph-name="box" d="M942.080 870.4h-860.16c-16.947 0-30.72-13.773-30.72-30.72v-122.88h921.6v122.88c0 16.947-13.773 30.72-30.72 30.72zM102.4 122.88c0-39.424 32.256-71.68 71.68-71.68h675.84c39.475 0 71.68 32.256 71.68 71.68v542.72h-819.2v-542.72zM358.4 563.2h307.2v-102.4h-307.2v102.4z" />
<glyph unicode="&#xe61c;" glyph-name="ticket" d="M251.187 381.85l181.862-181.862 333.67 333.67-181.914 181.862-333.619-333.67zM978.176 631.603l-77.414 77.363c-14.797-7.987-31.59-12.595-49.613-12.595-57.19 0-103.578 46.387-103.578 103.629 0 17.971 4.506 34.867 12.595 49.613l-77.414 77.363c-20.224 20.173-53.094 20.173-73.318 0l-563.61-563.661c-20.173-20.173-20.173-53.146 0-73.318l77.414-77.414c14.746 8.038 31.642 12.595 49.562 12.595 57.242 0 103.629-46.336 103.629-103.578 0-17.971-4.557-34.867-12.646-49.613l77.363-77.414c20.173-20.173 53.146-20.173 73.318 0l563.712 563.712c20.122 20.173 20.122 53.146 0 73.318zM433.050 116.787l-265.011 265.062 416.87 416.819 265.011-265.011-416.87-416.87z" />
<glyph unicode="&#xe61d;" glyph-name="rss" d="M102.502 829.491v-121.242c362.803 0 656.896-294.144 656.896-656.947h121.293c0 429.773-348.416 778.189-778.189 778.189zM102.502 586.957v-121.293c228.864 0 414.413-185.498 414.413-414.362h121.19c0 295.782-239.77 535.654-535.603 535.654zM218.726 283.75c-64.154 0-116.224-52.070-116.224-116.275s52.070-116.224 116.224-116.224c64.205 0 116.275 52.019 116.275 116.224s-52.070 116.275-116.275 116.275z" />
<glyph unicode="&#xe61e;" glyph-name="droplets" d="M202.496 968.038c-0.768 6.349-11.264 6.349-11.981 0-26.163-210.688-159.795-254.106-159.795-400.538 0-90.47 75.878-163.789 165.786-163.789s165.786 73.318 165.786 163.789c0 146.432-133.632 189.85-159.795 400.538zM833.485 968.038c-0.819 6.349-11.213 6.349-11.981 0-26.163-210.688-159.795-254.106-159.795-400.538 0-90.47 75.878-163.789 165.786-163.789s165.786 73.318 165.786 163.789c0 146.432-133.632 189.85-159.795 400.538zM506.010 513.126c-26.163-210.688-159.795-254.054-159.795-400.486 0-90.522 75.878-163.84 165.786-163.84s165.786 73.37 165.786 163.84c0 146.381-133.632 189.798-159.795 400.486-0.768 6.4-11.213 6.4-11.981 0z" />
<glyph unicode="&#xe61f;" glyph-name="pie" d="M459.059 860.262c-197.325-23.45-353.69-179.866-377.139-377.139h377.139v377.139zM566.938 859.494v-432.896c0-28.365-22.989-51.354-51.405-51.354h-432.896c27.699-211.712 208.538-375.194 427.725-375.194 238.387 0 431.718 193.229 431.718 431.718 0 219.187-163.482 400.026-375.142 427.725z" />
<glyph unicode="&#xe620;" glyph-name="lock" d="M809.011 563.098h-92.211v71.68c0 148.326-68.301 235.52-204.8 235.52-136.448 0-204.8-87.194-204.8-235.52v-71.68h-102.4c-28.262 0-51.2-33.126-51.2-61.44v-399.36c0-28.16 21.965-58.317 48.742-66.918l61.235-19.814c26.778-8.653 71.731-15.718 99.942-15.718h296.96c28.16 0 73.165 7.066 99.942 15.718l61.235 19.814c26.829 8.602 48.742 38.758 48.742 66.918v399.36c0 28.314-33.126 61.44-61.389 61.44zM409.6 655.258c0 73.984 40.858 112.64 102.4 112.64 61.594 0 102.4-38.656 102.4-112.64v-92.16h-204.8v92.16z" />
<glyph unicode="&#xe621;" glyph-name="lock-open" d="M808.96 563.2h-92.16v122.88c0 148.326-68.352 235.52-204.8 235.52-136.499 0-204.8-87.194-204.8-235.52v-20.48h102.4v40.96c0 73.984 40.806 112.64 102.4 112.64 61.542 0 102.4-38.656 102.4-112.64v-143.36h-409.6c-28.314 0-51.2-33.126-51.2-61.44v-399.36c0-28.16 21.965-58.266 48.742-66.918l61.235-19.814c26.829-8.602 71.782-15.667 99.942-15.667h296.96c28.211 0 73.165 7.066 99.942 15.718l61.235 19.814c26.778 8.602 48.742 38.707 48.742 66.867v399.36c0 28.314-33.126 61.44-61.44 61.44z" />
<glyph unicode="&#xe622;" glyph-name="info" d="M636.518 972.8c68.608 0 102.912-46.797 102.912-100.25 0-66.765-59.597-128.563-137.114-128.563-65.024 0-102.912 38.4-101.12 101.837 0 53.504 45.056 126.976 135.322 126.976zM425.421-51.2c-54.17 0-93.85 33.382-55.962 180.378l62.157 260.659c10.803 41.728 12.595 58.47 0 58.47-16.282 0-86.528-28.826-128.102-57.242l-27.034 45.107c131.738 111.923 283.238 177.51 348.211 177.51 54.118 0 63.078-65.126 36.096-165.325l-71.219-274.022c-12.595-48.435-7.219-65.126 5.376-65.126 16.282 0 69.478 20.122 121.805 61.85l30.72-41.728c-128.051-130.355-267.93-180.531-322.048-180.531z" />
<glyph unicode="&#xe623;" glyph-name="question" d="M721.408 858.419c-58.419 42.138-131.686 63.181-219.955 63.181-67.174 0-123.802-14.848-169.83-44.442-73.062-46.387-111.872-125.133-116.582-236.237h169.267c0 32.358 9.421 63.539 28.314 93.542s50.944 45.005 96.154 45.005c45.926 0 77.619-12.186 94.925-36.506 17.357-24.422 26.010-51.405 26.010-80.998 0-25.754-12.902-49.306-28.467-70.758-8.55-12.493-19.866-23.962-33.843-34.509 0 0-91.802-58.88-132.147-106.189-23.398-27.443-25.498-68.506-27.546-127.437-0.154-4.198 1.434-12.851 16.128-12.851s118.63 0 131.686 0 15.77 9.677 15.974 13.926c0.922 21.453 3.328 32.41 7.27 44.8 7.424 23.398 27.494 43.827 50.125 61.389l46.592 32.154c42.035 32.768 75.622 59.648 90.419 80.742 25.293 34.714 43.059 77.414 43.059 128.051 0 82.688-29.235 145.050-87.552 187.136zM498.739 208.691c-58.368 1.741-106.496-38.605-108.339-101.888-1.843-63.232 43.93-105.011 102.298-106.752 60.928-1.792 107.776 37.274 109.619 100.506 1.792 63.283-42.65 106.342-103.578 108.134z" />
<glyph unicode="&#xe624;" glyph-name="cw" d="M449.178 880.64c227.635 0 412.723-182.374 418.253-409.344h125.85l-188.365-209.971-188.365 209.971h146.227c-5.478 169.011-143.718 304.384-313.6 304.384-173.363 0-313.856-140.954-313.856-314.88s140.493-314.88 313.856-314.88c69.53 0 133.734 22.733 185.754 61.082l71.936-77.005c-71.014-55.757-160.461-89.037-257.69-89.037-231.117 0-418.458 187.955-418.458 419.84s187.341 419.84 418.458 419.84z" />
<glyph unicode="&#xe625;" glyph-name="ccw" d="M574.771 880.64c-227.584 0-412.672-182.374-418.253-409.344h-125.798l188.365-209.92 188.314 209.92h-146.227c5.53 169.011 143.77 304.384 313.6 304.384 173.414 0 313.907-140.954 313.907-314.88s-140.493-314.88-313.907-314.88c-69.478 0-133.683 22.733-185.702 61.082l-71.987-77.005c71.014-55.757 160.461-89.037 257.69-89.037 231.168 0 418.56 187.955 418.56 419.84-0.051 231.885-187.443 419.84-418.56 419.84z" />
<glyph unicode="&#xe626;" glyph-name="docs" d="M993.178 593.203l-381.184 102.093-66.714 248.934c-5.581 20.787-27.853 32.922-49.766 27.034l-464.64-124.467c-21.914-5.837-35.123-27.494-29.594-48.282l165.325-617.062c5.581-20.787 27.853-32.922 49.715-27.034l184.986 49.562-25.242-94.106c-5.581-20.838 7.629-42.445 29.542-48.333l415.232-111.258c21.914-5.837 44.186 6.246 49.766 27.034l152.115 567.603c5.581 20.787-7.629 42.445-29.542 48.282zM83.661 786.842l400.845 107.315 148.429-553.882-400.896-107.315-148.378 553.882zM802.765 27.392l-348.928 95.437 27.443 102.554 199.731 53.504c21.914 5.888 35.174 27.494 29.594 48.333l-77.21 288.102 304.435-83.507-135.066-504.422z" />
<glyph unicode="&#xe627;" glyph-name="resize-enlarge" d="M594.586 864.666l123.085-99.635-155.136-150.016 102.4-102.4 150.118 155.238 101.99-125.798v322.611h-322.458zM357.786 410.214l-150.067-155.136-100.864 124.467v-322.56h322.56l-124.467 100.813 155.187 150.067-102.349 102.349z" />
<glyph unicode="&#xe628;" glyph-name="resize-shrink" d="M209.92 250.88l-158.72-148.48 102.4-102.4 148.48 158.72 102.4-107.52v302.080h-302.080l107.52-102.4zM972.8 819.2l-102.4 102.4-148.48-158.72-102.4 107.52v-302.080h302.080l-107.52 102.4 158.72 148.48z" />
<glyph unicode="&#xe629;" glyph-name="flow-cascade" d="M716.8 225.28c-50.534 0-94.003-30.618-112.845-74.24h-168.755c-72.294 0-79.053 61.030-79.36 79.36v198.042c22.067-10.189 48.282-16.282 79.36-16.282h168.755c18.842-43.674 62.31-74.24 112.845-74.24 67.84 0 122.88 55.040 122.88 122.88s-55.040 122.88-122.88 122.88c-50.534 0-94.003-30.618-112.845-74.24h-168.755c-72.294 0-79.053 61.030-79.36 79.36v117.555c43.674 18.842 74.189 62.31 74.189 112.845 0 67.84-54.989 122.88-122.829 122.88s-122.88-55.040-122.88-122.88c0-50.534 30.618-93.952 74.24-112.845v-475.955c0-71.014 47.053-176.64 176.64-176.64h168.755c18.842-43.674 62.31-74.24 112.845-74.24 67.84 0 122.88 54.989 122.88 122.88 0 67.84-55.040 122.88-122.88 122.88zM716.8 531.712c39.168 0 70.912-31.744 70.912-70.912s-31.744-70.912-70.912-70.912-70.912 31.744-70.912 70.912 31.744 70.912 70.912 70.912zM236.288 819.2c0 39.168 31.744 70.912 70.912 70.912s70.912-31.744 70.912-70.912-31.744-70.912-70.912-70.912-70.912 31.744-70.912 70.912zM716.8 31.488c-39.168 0-70.912 31.744-70.912 70.912s31.744 70.912 70.912 70.912 70.912-31.744 70.912-70.912-31.744-70.912-70.912-70.912z" />
<glyph unicode="&#xe62a;" glyph-name="flow-branch" d="M839.68 768c0 67.84-54.989 122.88-122.88 122.88s-122.88-55.040-122.88-122.88c0-49.818 29.696-92.621 72.294-111.923-11.622-99.738-75.878-119.859-168.704-148.838-45.056-14.080-97.434-30.464-141.67-62.31v210.227c43.674 18.893 74.24 62.31 74.24 112.845 0 67.84-55.040 122.88-122.88 122.88-67.891 0-122.88-55.040-122.88-122.88 0-50.534 30.566-93.952 74.24-112.845v-388.762c-43.674-18.79-74.24-62.208-74.24-112.794 0-67.84 54.989-122.88 122.88-122.88 67.84 0 122.88 55.040 122.88 122.88 0 49.818-29.696 92.621-72.346 111.923 11.674 99.738 75.981 119.91 168.755 148.838 94.362 29.491 221.491 69.274 237.261 240.077 44.544 18.534 75.93 62.362 75.93 113.562zM236.288 768c0 39.168 31.744 70.912 70.912 70.912s70.912-31.744 70.912-70.912-31.744-70.912-70.912-70.912-70.912 31.744-70.912 70.912zM307.2 82.688c-39.168 0-70.912 31.744-70.912 70.912s31.744 70.912 70.912 70.912 70.912-31.744 70.912-70.912-31.744-70.912-70.912-70.912zM716.8 697.088c-39.117 0-70.912 31.744-70.912 70.912s31.795 70.912 70.912 70.912 70.912-31.744 70.912-70.912-31.795-70.912-70.912-70.912z" />
<glyph unicode="&#xe62b;" glyph-name="tap_and_play" d="M726 894.667c46 0 84-38 84-84v-726c0-46-38-84-84-84h-90c-4 60-18 116-40 170h130v554h-428v-256c-28 12-54 22-84 28v314c0 46 38 86 84 86zM86 426.667c260 0 468-210 468-470h-84c0 212-172 384-384 384v86zM86 84.667c70 0 128-58 128-128h-128v128zM86 256.667c166 0 298-134 298-300h-86c0 118-94 214-212 214v86z" />
<glyph unicode="&#xe62d;" glyph-name="flow-tree" d="M918.989 215.245v117.555c0 71.014-47.002 176.64-176.589 176.64h-102.4c-72.294 0-79.002 35.43-79.36 53.76v143.155c43.674 18.893 74.24 62.31 74.24 112.845 0 67.84-54.989 122.88-122.88 122.88s-122.88-55.040-122.88-122.88c0-50.534 30.566-93.952 74.24-112.845v-143.155c0-13.261-3.84-53.76-79.36-53.76h-102.4c-129.587 0-176.64-105.626-176.64-176.64v-117.555c-43.674-18.842-74.24-62.31-74.24-112.845 0-67.84 54.989-122.88 122.88-122.88 67.84 0 122.88 55.040 122.88 122.88 0 50.534-30.566 94.003-74.24 112.845v117.555c0 13.261 3.84 79.36 79.36 79.36h102.4c31.078 0 57.293 4.71 79.36 12.698v-209.613c-43.674-18.842-74.24-62.31-74.24-112.845 0-67.84 54.989-122.88 122.88-122.88s122.88 55.040 122.88 122.88c0 50.534-30.618 94.003-74.291 112.845v209.613c22.067-7.987 48.282-12.698 79.36-12.698h102.4c72.294 0 79.002-61.030 79.411-79.36v-117.555c-43.674-18.842-74.24-62.31-74.24-112.845 0-67.84 54.989-122.88 122.88-122.88s122.88 55.040 122.88 122.88c0 50.534-30.566 94.003-74.291 112.845zM224.512 102.4c0-39.168-31.744-70.912-70.912-70.912s-70.912 31.744-70.912 70.912 31.744 70.912 70.912 70.912 70.912-31.744 70.912-70.912zM441.088 819.2c0 39.168 31.795 70.912 70.912 70.912s70.861-31.744 70.861-70.912-31.744-70.912-70.861-70.912c-39.117 0-70.912 31.744-70.912 70.912zM582.912 102.4c0-39.168-31.795-70.912-70.861-70.912-39.168 0-70.912 31.744-70.912 70.912s31.744 70.912 70.861 70.912c39.117 0 70.912-31.744 70.912-70.912zM870.4 31.488c-39.117 0-70.912 31.744-70.912 70.912s31.795 70.912 70.912 70.912 70.912-31.744 70.912-70.912-31.795-70.912-70.912-70.912z" />
<glyph unicode="&#xe62e;" glyph-name="flow-line" d="M560.64 266.445v388.762c43.674 18.842 74.24 62.259 74.24 112.794 0 67.891-55.040 122.88-122.88 122.88s-122.88-54.989-122.88-122.88c0-50.534 30.618-93.952 74.24-112.794v-388.762c-43.674-18.842-74.24-62.259-74.24-112.845 0-67.84 55.040-122.88 122.88-122.88s122.88 55.040 122.88 122.88c0 50.586-30.566 94.003-74.24 112.845zM441.088 768c0 39.168 31.744 70.912 70.912 70.912s70.912-31.744 70.912-70.912-31.744-70.912-70.912-70.912-70.912 31.744-70.912 70.912zM512 82.688c-39.168 0-70.912 31.744-70.912 70.912s31.744 70.912 70.912 70.912 70.912-31.744 70.912-70.912-31.744-70.912-70.912-70.912z" />
<glyph unicode="&#xe62f;" glyph-name="flow-parallel" d="M430.080 768c0 67.891-55.040 122.88-122.88 122.88s-122.88-54.989-122.88-122.88c0-50.534 30.566-93.952 74.24-112.794v-388.762c-43.674-18.842-74.24-62.259-74.24-112.845 0-67.84 55.040-122.88 122.88-122.88 67.891 0 122.88 55.040 122.88 122.88 0 50.586-30.618 94.003-74.24 112.845v388.762c43.674 18.842 74.24 62.259 74.24 112.794zM378.112 153.6c0-39.168-31.744-70.912-70.912-70.912-39.117 0-70.861 31.744-70.861 70.912s31.744 70.912 70.861 70.912c39.168 0 70.912-31.744 70.912-70.912zM307.2 697.088c-39.117 0-70.861 31.744-70.861 70.912s31.744 70.912 70.861 70.912c39.168 0 70.912-31.744 70.912-70.912s-31.744-70.912-70.912-70.912zM765.491 266.445v388.762c43.622 18.842 74.189 62.259 74.189 112.794 0 67.891-54.989 122.88-122.88 122.88-67.789 0-122.88-54.989-122.88-122.88 0-50.534 30.618-93.952 74.291-112.794v-388.762c-43.725-18.842-74.291-62.259-74.291-112.845 0-67.84 55.091-122.88 122.88-122.88 67.891 0 122.88 55.040 122.88 122.88 0 50.586-30.566 94.003-74.189 112.845zM645.888 768c0 39.168 31.795 70.912 70.912 70.912 39.219 0 70.912-31.744 70.912-70.912s-31.693-70.912-70.912-70.912c-39.117 0-70.912 31.744-70.912 70.912zM716.8 82.688c-39.117 0-70.912 31.744-70.912 70.912s31.795 70.912 70.912 70.912c39.219 0 70.912-31.744 70.912-70.912s-31.693-70.912-70.912-70.912z" />
<glyph unicode="&#xe630;" glyph-name="arrow-left" d="M716.749 696.32l0.051-471.040-409.6 235.52z" />
<glyph unicode="&#xe631;" glyph-name="arrow-down" d="M747.52 665.549l-471.040 0.051 235.52-409.6z" />
<glyph unicode="&#xe632;" glyph-name="arrow-up" d="M276.48 256h471.040l-235.571 409.6z" />
<glyph unicode="&#xe633;" glyph-name="arrow-right" d="M307.251 696.32l-0.051-471.040 409.6 235.52z" />
<glyph unicode="&#xe634;" glyph-name="menu" d="M512 972.8l-235.52-373.76h470.989l-235.469 373.76zM512.051-51.2l235.469 373.76-471.040 0.051 235.571-373.811z" />
<glyph unicode="&#xe635;" glyph-name="ellipsis" d="M153.6 573.44c-62.208 0-112.64-50.432-112.64-112.64s50.432-112.64 112.64-112.64 112.64 50.432 112.64 112.64c0 62.208-50.432 112.64-112.64 112.64zM512 573.44c-62.208 0-112.64-50.432-112.64-112.64s50.432-112.64 112.64-112.64 112.589 50.432 112.589 112.64c0 62.208-50.381 112.64-112.589 112.64zM870.4 573.44c-62.208 0-112.64-50.432-112.64-112.64s50.432-112.64 112.64-112.64 112.64 50.432 112.64 112.64c0 62.208-50.432 112.64-112.64 112.64z" />
<glyph unicode="&#xe636;" glyph-name="dots" d="M332.8 573.44c-62.208 0-112.64-50.432-112.64-112.64s50.432-112.64 112.64-112.64 112.64 50.432 112.64 112.64-50.432 112.64-112.64 112.64zM691.2 573.44c-62.208 0-112.64-50.432-112.64-112.64s50.432-112.64 112.64-112.64 112.64 50.432 112.64 112.64-50.432 112.64-112.64 112.64z" />
<glyph unicode="&#xe637;" glyph-name="dot" d="M512 573.44c-62.208 0-112.64-50.432-112.64-112.64s50.432-112.64 112.64-112.64 112.64 50.432 112.64 112.64-50.432 112.64-112.64 112.64z" />
<glyph unicode="&#xe638;" glyph-name="confirmation_number" d="M554 576.667v84h-84v-84h84zM554 384.667v84h-84v-84h84zM554 192.667v84h-84v-84h84zM938 512.667c-46 0-84-40-84-86s38-86 84-86v-170c0-46-38-86-84-86h-684c-46 0-84 40-84 86v170c48 0 84 40 84 86s-38 86-84 86v170c0 48 38 86 84 86h684c46 0 84-38 84-86v-170z" />
<glyph unicode="&#xe639;" glyph-name="flickr" d="M252.058 256c-110.95 0-200.858 91.597-200.858 204.8s89.907 204.8 200.858 204.8c110.95 0 200.909-91.648 200.909-204.8s-89.958-204.8-200.909-204.8zM771.891 256c-111.002 0-201.011 91.597-201.011 204.8s90.010 204.8 201.011 204.8c110.899 0 200.909-91.648 200.909-204.8s-90.010-204.8-200.909-204.8z" />
<glyph unicode="&#xe63a;" glyph-name="vimeo" d="M968.192 673.741c-51.507-295.526-339.2-545.792-425.728-602.931-86.579-57.139-165.478 22.886-194.15 83.456-32.768 68.966-131.021 443.238-156.774 474.163-25.702 31.078-102.912-30.925-102.912-30.925l-37.427 49.971c0 0 156.774 190.72 276.070 214.528 126.464 25.242 126.259-197.837 156.672-321.69 29.44-119.859 49.203-188.467 74.854-188.467 25.754 0 74.854 66.867 128.666 169.318 53.914 102.554-2.304 193.075-107.622 128.717 42.086 257.434 439.859 319.334 388.352 23.859z" />
<glyph unicode="&#xe63b;" glyph-name="googleplus" d="M638.767 419.123q0-92.508-38.682-164.776t-110.296-112.972-164.121-40.703q-66.263 0-126.749 25.788t-104.063 69.394-69.394 104.063-25.788 126.749 25.788 126.749 69.394 104.063 104.063 69.394 126.749 25.788q127.204 0 218.372-85.391l-88.494-84.935q-52.032 50.266-129.851 50.266-54.707 0-101.188-27.581t-73.607-74.946-27.126-103.407 27.126-103.407 73.607-74.946 101.188-27.581q36.917 0 67.828 10.218t50.921 25.56 34.924 34.924 21.803 36.917 9.564 32.904h-185.013v112.090h307.777q5.323-28.008 5.323-54.252zM1024.364 473.402v-93.389h-92.961v-92.961h-93.389v92.961h-92.961v93.389h92.961v92.961h93.389v-92.961h92.961z" />
<glyph unicode="&#xe63c;" glyph-name="twitter" d="M983.040 752.998c-34.714-15.411-71.936-25.754-111.053-30.464 39.936 23.91 70.605 61.798 84.992 106.906-37.325-22.118-78.694-38.246-122.675-46.899-35.277 37.581-85.504 61.030-141.107 61.030-106.752 0-193.28-86.528-193.28-193.229 0-15.155 1.69-29.901 5.018-44.032-160.614 8.038-303.053 84.992-398.336 201.933-16.691-28.518-26.266-61.747-26.266-97.178 0-67.072 34.15-126.208 86.016-160.87-31.693 1.024-61.491 9.677-87.552 24.166 0-0.819 0-1.587 0-2.406 0-93.645 66.662-171.725 155.034-189.542-16.179-4.403-33.28-6.758-50.944-6.758-12.442 0-24.525 1.178-36.352 3.43 24.576-76.8 96-132.659 180.531-134.195-66.15-51.866-149.453-82.739-240.026-82.739-15.616 0-30.976 0.922-46.080 2.714 85.504-54.835 187.085-86.835 296.294-86.835 355.482 0 549.888 294.502 549.888 549.939 0 8.346-0.154 16.691-0.563 24.986 37.786 27.238 70.502 61.286 96.461 100.045z" />
<glyph unicode="&#xe63d;" glyph-name="facebook" d="M796.445 794.795h-162.474c-19.229 0-40.676-25.259-40.676-59.108v-117.304h203.15v-167.253h-203.15v-502.329h-191.829v502.272h-173.909v167.31h173.909v98.418c0 141.141 97.962 256 232.448 256h162.531v-178.006z" />
<glyph unicode="&#xe63e;" glyph-name="wifi" d="M214 384.667c166 164 432 164 596 0l-84-86c-118 118-310 118-428 0zM384 212.667c70 70 186 70 256 0l-128-128zM42 554.667c260 258 682 258 940 0l-86-86c-212 212-556 212-768 0z" />
<glyph unicode="&#xe63f;" glyph-name="facebook2" d="M895.999 972.799h-767.999c-70.37 0-128-57.63-128-128v-767.999c0-70.43 57.63-127.94 127.94-127.94h388.405v367.151h-122.642v159.91h122.642v80.134c0 123.535 91.207 220.279 207.658 220.279h112.997v-180.629h-101.15c-26.434 0-34.173-15.181-34.173-36.137v-83.587h135.323v-159.97h-135.323v-367.211h194.262c70.43 0 127.94 57.57 127.94 127.94v768.058c0.119 70.37-57.451 128-127.881 128z" />
<glyph unicode="&#xe640;" glyph-name="pinterest" d="M441.139 295.526c-26.88-140.954-59.699-276.122-156.979-346.726-30.003 213.094 44.083 373.094 78.49 542.976-58.675 98.816 7.066 297.574 130.867 248.576 152.32-60.262-131.891-367.258 58.88-405.606 199.219-40.038 280.525 345.6 157.030 470.989-178.483 181.146-519.578 4.198-477.594-255.027 10.189-63.386 75.674-82.637 26.163-170.086-114.227 25.293-148.326 115.405-143.923 235.52 7.066 196.557 176.64 334.182 346.726 353.229 215.142 24.115 417.024-78.95 444.826-281.293 31.386-228.352-97.024-475.699-327.117-457.882-62.31 4.762-88.474 35.635-137.37 65.331z" />
<glyph unicode="&#xe641;" glyph-name="tumblr" d="M823.652 4.675c-43.186-20.591-82.365-35.116-117.371-43.409-35.061-8.237-73.015-12.466-113.698-12.466-46.247 0-87.096 5.954-122.713 17.753-35.507 11.854-65.78 28.716-90.936 50.476-25.099 21.983-42.518 45.189-52.202 69.843-9.739 24.654-14.58 60.383-14.58 107.186v359.179h-111.805v144.919c39.736 13.078 73.85 31.722 102.122 56.153 28.383 24.376 51.089 53.704 68.285 87.93 17.141 34.226 28.884 77.69 35.395 130.56h143.861v-258.838h240.139v-160.724h-240.139v-262.623c0-59.325 3.116-97.447 9.405-114.365 6.122-16.807 17.698-30.275 34.56-40.348 22.484-13.579 48.028-20.368 76.855-20.368 51.255 0 102.177 16.863 152.821 50.533v-161.391z" />
<glyph unicode="&#xe642;" glyph-name="linkedin" d="M231.879 856.177c0-60.473-44.658-109.454-118.101-109.454-69.12 0-113.778 48.981-113.778 109.454 0 61.895 46.137 109.454 116.679 109.454s113.778-47.559 115.2-109.454zM5.803-44.032v704.284h218.909v-704.284h-218.909zM355.727 435.598c0 87.837-2.901 161.28-5.802 224.654h190.122l10.127-97.962h4.323c28.786 46.137 99.384 113.778 217.486 113.778 143.985 0 252.018-96.483 252.018-303.9v-416.255h-218.909v390.314c0 90.738-31.744 152.69-110.933 152.69-60.473 0-96.427-41.757-112.299-82.091-5.802-14.393-7.224-34.531-7.224-54.727v-406.186h-218.909v479.686z" />
<glyph unicode="&#xe643;" glyph-name="dribbble" d="M489.728 592.845c-69.53 123.648-143.872 224.41-149.35 231.782-112.179-52.992-195.942-156.314-222.003-280.883 10.547-0.205 178.176-2.202 371.354 49.101zM539.853 457.728c5.325 1.69 10.547 3.226 15.923 4.762-10.086 22.886-21.146 45.773-32.666 68.352-207.155-61.952-405.965-57.498-413.030-57.293-0.154-4.25-0.307-8.448-0.307-12.749 0-103.475 39.117-197.683 103.219-268.954-0.102 0.102-0.307 0.358-0.307 0.358s110.131 195.277 327.168 265.523zM264.755 143.718l0.102 0.154c-3.021 2.355-6.195 4.454-9.114 6.912 5.325-4.301 9.011-7.066 9.011-7.066zM415.642 851.354c-0.358-0.102-0.717-0.154-1.024-0.256 0.563 0.154 0.973 0.205 1.024 0.256v0zM777.677 762.675c-70.861 62.413-163.789 100.352-265.626 100.352-32.717 0-64.41-3.994-94.822-11.366 6.093-8.090 81.613-108.442 150.426-234.65 151.654 56.883 208.998 144.026 210.022 145.664zM512.051-10.24c-260.198 0-471.091 210.893-471.091 471.040s210.893 471.040 471.091 471.040c260.147 0 470.989-210.893 470.989-471.040s-210.842-471.040-470.989-471.040zM580.454 395.008c-236.083-82.278-314.061-247.757-315.597-251.136 68.198-53.299 153.907-85.299 247.194-85.299 55.706 0 108.749 11.315 156.979 31.795-5.939 35.277-29.338 158.515-85.914 305.562-0.87-0.358-1.792-0.614-2.662-0.922zM598.528 557.107c9.421-19.2 18.381-38.656 26.726-58.368 3.021-6.963 5.837-13.875 8.704-20.787 138.957 17.459 275.712-12.186 280.166-13.158-0.922 95.437-35.021 182.989-91.443 251.494-0.819-1.178-65.331-94.362-224.154-159.181zM658.483 414.464c52.838-145.152 74.24-263.27 78.285-287.334 90.368 60.979 154.522 157.696 172.39 269.875-7.936 2.611-120.627 38.298-250.675 17.459z" />
<glyph unicode="&#xe644;" glyph-name="stumbleupon" d="M565.862 560.128l69.837-33.741 105.421 33.741v61.184c0 126.054-102.758 228.608-229.12 228.608-126.31 0-229.069-102.554-229.069-228.608v-321.024c0-29.594-24.166-53.709-53.811-53.709s-53.811 24.115-53.811 53.709v134.4h-175.309v-134.4c0-126.054 102.758-228.608 229.12-228.608s229.12 102.554 229.12 228.608v321.024c0 29.594 24.166 53.709 53.811 53.709 29.696 0 53.862-24.115 53.862-53.709v-61.184zM848.742 434.688v-134.4c0-29.594-24.166-53.709-53.811-53.709-29.696 0-53.862 24.115-53.862 53.709v137.114l-105.421-33.741-69.837 33.741v-137.114c0-126.054 102.758-228.608 229.12-228.608 126.31 0 229.069 102.554 229.069 228.608v134.4h-175.258z" />
<glyph unicode="&#xe645;" glyph-name="lastfm" d="M403.149 328.858c-21.453-19.251-62.669-57.856-131.277-57.856-80.947 0-158.925 70.963-158.925 184.474 0 145.459 93.184 192.358 164.762 192.358 103.219 0 125.85-62.259 153.958-148.582l37.53-118.272c37.478-114.637 107.878-206.848 310.784-206.848 145.51 0 244.019 44.902 244.019 163.123 0 95.795-54.016 145.459-154.829 169.114l-75.059 16.486c-51.61 11.827-66.867 33.075-66.867 68.608 0 40.192 31.642 63.846 83.251 63.846 56.32 0 86.784-21.299 91.494-72.141l117.299 14.182c-9.37 106.394-82.074 150.17-201.728 150.17-105.574 0-208.742-40.192-208.742-169.062 0-80.384 38.707-131.226 135.987-154.88l79.821-18.893c59.802-14.182 79.77-39.066 79.77-73.37 0-43.725-42.24-61.44-122.010-61.44-118.426 0-177.971 62.669-206.080 148.941l-38.758 118.272c-49.254 153.651-107.418 210.432-263.424 210.432-139.059 0-274.125-109.978-274.125-296.755 0-179.763 129.638-276.685 265.933-276.685 98.56 0 148.582 34.611 173.056 52.378l-35.84 102.4z" />
<glyph unicode="&#xe646;" glyph-name="rdio" d="M815.923 513.229c120.371 35.584 190.925 163.123 140.237 165.683-130.099 6.605-241.357 69.632-316.314 116.736-7.936 5.222-16.026 10.189-24.371 14.848v-293.12c0-96.922-58.624-174.131-125.082-206.234-96.512-46.592-204.032-17.357-240.179 65.331s12.8 187.494 109.312 234.035c53.402 25.754 110.080 28.262 156.262 11.418v227.379c-29.184 6.963-59.546 10.854-90.829 10.854-217.754 0-394.291-178.79-394.291-399.36s176.538-399.36 394.291-399.36c217.805 0 394.291 178.79 394.291 399.36 0 17.766-1.126 35.277-3.328 52.429z" />
<glyph unicode="&#xe647;" glyph-name="spotify" d="M512 911.36c-248.832 0-450.56-201.728-450.56-450.56 0-113.766 42.138-217.651 111.718-296.909 70.451 70.451 167.014 110.029 277.862 106.445 141.363-4.557 252.928-71.526 316.928-180.378 117.555 81.306 194.611 217.037 194.611 370.842 0 248.832-201.779 450.56-450.56 450.56zM732.314 300.186c-7.936-13.158-24.934-17.203-37.99-9.267-104.346 63.744-235.622 78.131-390.246 42.854-14.848-3.43-29.747 5.888-33.075 20.838-3.43 14.848 5.837 29.696 20.787 33.075 169.165 38.656 314.317 21.965 431.36-49.459 13.005-7.987 17.152-24.986 9.165-38.042zM786.586 427.981c-9.984-16.282-31.283-21.35-47.565-11.315-119.296 73.318-301.363 94.566-442.573 51.712-18.33-5.53-37.683 4.813-43.213 23.040-5.53 18.33 4.813 37.683 23.040 43.213 161.331 48.998 361.882 25.293 498.995-58.982 16.282-10.086 21.453-31.283 11.315-47.667zM791.296 560.384c-143.104 85.094-379.29 92.826-515.942 51.405-21.914-6.707-45.107 5.734-51.866 27.648-6.605 21.965 5.786 45.21 27.75 51.814 156.928 47.667 417.69 38.451 582.451-59.392 19.763-11.725 26.266-37.222 14.541-56.934s-37.12-26.163-56.934-14.541zM448.102 135.629c-63.386 2.048-116.173-22.682-154.675-68.915 64.717-35.942 139.213-56.474 218.573-56.474 38.246 0 75.418 4.762 110.848 13.773-33.997 69.734-93.235 109.005-174.746 111.616z" />
<glyph unicode="&#xe648;" glyph-name="instagram" d="M778.24 460.8c0-147.046-119.245-266.24-266.24-266.24-147.046 0-266.24 119.194-266.24 266.24 0 17.51 1.741 34.611 5.018 51.2h-179.098v-353.894c0-75.981 61.542-137.626 137.626-137.626h605.389c75.981 0 137.626 61.594 137.626 137.626v353.894h-179.046c3.226-16.589 4.966-33.69 4.966-51.2zM814.694 901.12h-605.389c-76.032 0-137.626-61.645-137.626-137.626v-149.094h222.925c48.179 68.096 127.59 112.64 217.395 112.64s169.216-44.544 217.395-112.64h222.925v149.094c0 75.981-61.645 137.626-137.626 137.626zM882.022 731.136c0-13.568-11.059-24.576-24.576-24.576h-73.677c-13.517 0-24.576 11.059-24.576 24.576v73.728c0 13.568 11.11 24.576 24.576 24.576h73.677c13.568 0 24.576-11.059 24.576-24.576v-73.728zM675.84 460.8c0 90.522-73.37 163.84-163.84 163.84s-163.84-73.318-163.84-163.84 73.37-163.84 163.84-163.84 163.84 73.318 163.84 163.84z" />
<glyph unicode="&#xe649;" glyph-name="dropbox" d="M312.781 926.618l-292.301-182.067 200.243-167.885 291.277 189.184-199.219 160.768zM688.742 153.907c-5.222 0-10.394 1.792-14.592 5.325l-162.15 134.451-162.15-134.502c-4.198-3.482-9.421-5.325-14.592-5.325-4.352 0-8.704 1.178-12.493 3.686l-120.115 78.592v-46.387l309.35-194.765 309.35 194.816v46.387l-120.115-78.592c-3.789-2.509-8.141-3.686-12.493-3.686zM1003.52 744.55l-292.301 182.067-199.219-160.768 291.226-189.133 200.294 167.834zM512 394.701l180.582-149.914 288.87 188.826-178.176 143.053-291.277-181.965zM331.418 244.787l180.582 149.914-291.226 182.016-178.176-143.104 288.819-188.826z" />
<glyph unicode="&#xe64a;" glyph-name="phone_forwarded" d="M854 276.667q18 0 30-12t12-30v-150q0-18-12-30t-30-12q-300 0-513 213t-213 513q0 18 12 30t30 12h150q18 0 30-12t12-30q0-80 24-152 8-26-10-44l-94-94q94-184 282-282l94 94q18 18 44 10 72-24 152-24zM768 468.667v128h-170v172h170v128l214-214z" />
<glyph unicode="&#xe64b;" glyph-name="account-balance" d="M161.673 498.248v-325.203h139.372v325.203h-139.372zM440.419 498.248v-325.203h139.372v325.203h-139.372zM68.758-59.241h882.692v139.372h-882.692v-139.372zM719.163 498.248v-325.203h139.372v325.203h-139.372zM510.104 916.366l-441.345-232.287v-92.914h882.692v92.914l-441.345 232.287z" />
<glyph unicode="&#xe64c;" glyph-name="account-balance-wallet" d="M945.006 123.158v-50.586c0-55.897-45.273-101.169-101.169-101.169h-708.19c-55.897 0-101.169 45.273-101.169 101.169v708.19c0 55.897 45.273 101.169 101.169 101.169h708.19c55.897 0 101.169-45.273 101.169-101.169v-50.586h-455.266c-55.897 0-101.169-45.273-101.169-101.169v-404.681c0-55.897 45.273-101.169 101.169-101.169h455.266zM489.739 224.326h505.851v404.681h-505.851v-404.681zM692.080 350.788c-41.986 0-75.879 33.892-75.879 75.879s33.892 75.879 75.879 75.879 75.879-33.892 75.879-75.879-33.892-75.879-75.879-75.879z" />
<glyph unicode="&#xe64d;" glyph-name="account-box" d="M36.94 796.158v-738.981c0-58.327 47.241-105.568 105.568-105.568h738.981c58.327 0 105.568 47.241 105.568 105.568v738.981c0 58.327-47.241 105.568-105.568 105.568h-738.981c-58.327 0-105.568-47.241-105.568-105.568zM670.353 585.020c0-87.622-70.996-158.353-158.353-158.353s-158.353 70.731-158.353 158.353c0 87.358 70.996 158.353 158.353 158.353s158.353-70.996 158.353-158.353zM195.295 162.745c0 105.568 211.138 163.633 316.705 163.633s316.705-58.062 316.705-163.633v-52.785h-633.414v52.785z" />
<glyph unicode="&#xe64e;" glyph-name="account-circle" d="M512 911.441c-267.837 0-484.774-216.935-484.774-484.774s216.935-484.774 484.774-484.774 484.774 216.935 484.774 484.774-216.935 484.774-484.774 484.774zM512 766.009c80.23 0 145.432-65.203 145.432-145.432 0-80.472-65.203-145.432-145.432-145.432s-145.432 64.96-145.432 145.432c0 80.23 65.203 145.432 145.432 145.432zM512 77.63c-121.436 0-228.087 62.050-290.863 156.097 1.211 96.226 194.153 149.31 290.863 149.31s289.41-53.083 290.863-149.31c-62.778-94.046-169.427-156.097-290.863-156.097z" />
<glyph unicode="&#xe64f;" glyph-name="add-shopping-cart" d="M508.208 544.706h92.914v139.372h139.372v92.914h-139.372v139.372h-92.914v-139.372h-139.372v-92.914h139.372v-139.372zM322.379 126.59c-51.336 0-92.451-41.579-92.451-92.914s41.115-92.914 92.451-92.914 92.914 41.579 92.914 92.914-41.579 92.914-92.914 92.914zM786.953 126.59c-51.336 0-92.451-41.579-92.451-92.914s41.115-92.914 92.451-92.914 92.914 41.579 92.914 92.914-41.579 92.914-92.914 92.914zM330.508 277.577c0 2.090 0.465 3.95 1.394 5.575l41.812 75.726h346.108c34.843 0 65.273 19.28 81.301 47.852l179.326 325.666-81.301 44.599h-0.232l-51.336-92.914-127.991-232.287h-325.899l-6.040 12.544-148.432 312.659-43.902 92.914h-151.684v-92.914h92.914l167.247-352.381-62.95-113.821c-7.201-13.472-11.381-28.571-11.381-44.831 0-51.336 41.579-92.914 92.914-92.914h557.49v92.914h-537.745c-6.504 0-11.615 5.11-11.615 11.615z" />
<glyph unicode="&#xe650;" glyph-name="alarm" d="M996.774 731.105l-222.753 186.88-62.294-74.17 222.753-186.88 62.294 74.17zM312.273 844.057l-62.294 74.17-222.753-186.88 62.294-74.17 222.753 186.88zM536.239 620.577h-72.717v-290.863l230.024-138.402 36.6 59.87-193.91 114.892v254.506zM511.758 814.486c-241.175 0-436.054-195.364-436.054-436.297s194.879-436.297 436.054-436.297 436.538 195.364 436.538 436.297-195.364 436.297-436.538 436.297zM512 38.848c-187.366 0-339.342 151.977-339.342 339.342s151.977 339.342 339.342 339.342 339.342-151.977 339.342-339.342-151.734-339.342-339.342-339.342z" />
<glyph unicode="&#xe651;" glyph-name="alarm-add" d="M312.273 844.057l-62.294 74.17-222.753-186.88 62.294-74.17 222.753 186.88zM996.774 731.105l-222.753 186.88-62.294-74.17 222.753-186.88 62.294 74.17zM511.758 814.486c-241.175 0-436.054-195.364-436.054-436.297s194.879-436.297 436.054-436.297 436.538 195.364 436.538 436.297-195.364 436.297-436.538 436.297zM512 38.848c-187.366 0-339.342 151.977-339.342 339.342s151.977 339.342 339.342 339.342 339.342-151.977 339.342-339.342-151.734-339.342-339.342-339.342zM560.478 572.099h-96.954v-145.432h-145.432v-96.954h145.432v-145.432h96.954v145.432h145.432v96.954h-145.432v145.432z" />
<glyph unicode="&#xe652;" glyph-name="alarm-off" d="M512 717.53c187.366 0 339.342-151.977 339.342-339.342 0-40.964-7.514-79.988-20.846-116.346l73.685-73.685c28.118 57.446 44.115 121.921 44.115 190.031 0 240.933-195.364 436.297-436.538 436.297-68.111 0-132.343-15.998-190.031-43.872l73.928-73.928c36.358 13.33 75.383 20.846 116.346 20.846zM996.774 731.105l-222.753 186.88-62.294-74.17 222.753-186.88 62.294 74.17zM71.826 897.139l-61.808-61.566 64.475-64.475-53.81-45.083 68.838-68.838 53.81 45.083 38.782-38.782c-66.171-76.593-106.408-176.214-106.408-285.289 0-240.933 194.879-436.297 436.054-436.297 109.316 0 208.937 40.479 285.289 106.651l106.651-106.651 61.566 61.808-893.438 893.438zM728.694 116.897c-58.9-48.719-134.283-78.049-216.694-78.049-187.366 0-339.342 151.977-339.342 339.342 0 82.412 29.328 157.794 78.049 216.694l477.986-477.986zM318.818 849.633l-68.838 68.838-41.206-34.661 68.838-68.838 41.206 34.661z" />
<glyph unicode="&#xe653;" glyph-name="alarm-on" d="M996.774 731.105l-222.753 186.88-62.294-74.17 222.753-186.88 62.294 74.17zM312.273 844.057l-62.294 74.17-222.753-186.88 62.294-74.17 222.753 186.88zM511.758 814.486c-241.175 0-436.054-195.364-436.054-436.297s194.879-436.297 436.054-436.297 436.538 195.364 436.538 436.297-195.364 436.297-436.538 436.297zM512 38.848c-187.366 0-339.342 151.977-339.342 339.342s151.977 339.342 339.342 339.342 339.342-151.977 339.342-339.342-151.734-339.342-339.342-339.342zM440.98 304.262l-102.772 102.772-51.386-51.386 154.158-154.158 291.106 291.106-51.386 51.386-239.72-239.72z" />
<glyph unicode="&#xe654;" glyph-name="aspect-ratio" d="M810.667 426.667h-85.333v-128h-128v-85.333h213.333v213.333zM298.667 554.667h128v85.333h-213.333v-213.333h85.333v128zM896 810.667h-768c-47.147 0-85.333-38.187-85.333-85.333v-597.333c0-47.147 38.187-85.333 85.333-85.333h768c47.147 0 85.333 38.187 85.333 85.333v597.333c0 47.147-38.187 85.333-85.333 85.333zM896 127.36h-768v598.613h768v-598.613z" />
<glyph unicode="&#xe655;" glyph-name="phone_in_talk" d="M640 426.667q0 52-38 90t-90 38v86q88 0 151-63t63-151h-86zM810 426.667q0 124-87 211t-211 87v86q160 0 272-112t112-272h-86zM854 276.667q18 0 30-12t12-30v-150q0-18-12-30t-30-12q-300 0-513 213t-213 513q0 18 12 30t30 12h150q18 0 30-12t12-30q0-80 24-152 8-26-10-44l-94-94q94-184 282-282l94 94q18 18 44 10 72-24 152-24z" />
<glyph unicode="&#xe656;" glyph-name="assignment" d="M851.342 818.443h-202.877c-19.876 56.233-73.201 96.954-136.464 96.954s-116.587-40.721-136.464-96.954h-202.877c-53.568 0-96.954-43.387-96.954-96.954v-678.682c0-53.568 43.387-96.954 96.954-96.954h678.682c53.568 0 96.954 43.387 96.954 96.954v678.682c0 53.568-43.387 96.954-96.954 96.954zM512 818.443c26.663 0 48.478-21.573 48.478-48.478s-21.815-48.478-48.478-48.478-48.478 21.573-48.478 48.478 21.815 48.478 48.478 48.478zM608.954 139.76h-339.342v96.954h339.342v-96.954zM754.386 333.668h-484.774v96.954h484.774v-96.954zM754.386 527.578h-484.774v96.954h484.774v-96.954z" />
<glyph unicode="&#xe657;" glyph-name="autorenew" d="M512 682.667v-128l170.667 170.667-170.667 170.667v-128c-188.587 0-341.333-152.747-341.333-341.333 0-66.987 19.627-129.067 52.907-181.76l62.293 62.293c-18.987 35.627-29.867 76.16-29.867 119.467 0 141.44 114.56 256 256 256zM800.427 608.427l-62.293-62.293c18.987-35.627 29.867-76.16 29.867-119.467 0-141.44-114.56-256-256-256v128l-170.667-170.667 170.667-170.667v128c188.587 0 341.333 152.747 341.333 341.333 0 66.987-19.627 129.067-52.907 181.76z" />
<glyph unicode="&#xe658;" glyph-name="book" d="M802.863 911.441h-581.729c-53.568 0-96.954-43.387-96.954-96.954v-775.638c0-53.568 43.387-96.954 96.954-96.954h581.729c53.568 0 96.954 43.387 96.954 96.954v775.638c0 53.568-43.387 96.954-96.954 96.954zM221.137 814.486h242.386v-387.819l-121.194 72.717-121.194-72.717v387.819z" />
<glyph unicode="&#xe659;" glyph-name="bookmark" d="M775.922 901.727h-527.845c-58.327 0-105.042-47.241-105.042-105.568l-0.528-844.551 369.491 158.353 369.491-158.353v844.551c0 58.327-47.241 105.568-105.568 105.568z" />
<glyph unicode="&#xe65a;" glyph-name="bookmark-outline" d="M775.922 901.727h-527.845c-58.327 0-105.042-47.241-105.042-105.568l-0.528-844.551 369.491 158.353 369.491-158.353v844.551c0 58.327-47.241 105.568-105.568 105.568zM775.922 109.962l-263.922 114.806-263.922-114.806v686.198h527.845v-686.198z" />
<glyph unicode="&#xe65b;" glyph-name="bug-report" d="M934.276 637.805h-148.324c-23.753 41.173-56.478 76.801-95.803 103.458l85.774 85.774-74.689 74.689-114.806-114.806c-23.753 5.806-48.826 9.239-74.426 9.239s-50.672-3.431-74.426-9.239l-114.806 114.806-74.689-74.689 85.774-85.774c-39.325-26.657-72.050-62.285-95.803-103.458h-148.324v-105.568h110.32c-2.903-17.155-4.751-34.838-4.751-52.785v-52.785h-105.568v-105.568h105.568v-52.785c0-17.948 1.848-35.63 4.751-52.785h-110.32v-105.568h148.324c54.631-94.485 156.77-158.353 273.951-158.353s219.32 63.869 273.951 158.353h148.324v105.568h-110.32c2.903 17.155 4.751 34.838 4.751 52.785v52.785h105.568v105.568h-105.568v52.785c0 17.948-1.848 35.63-4.751 52.785h110.32v105.568zM617.568 215.529h-211.138v105.568h211.138v-105.568zM617.568 426.667h-211.138v105.568h211.138v-105.568z" />
<glyph unicode="&#xe65c;" glyph-name="cached" d="M810.667 597.334l-170.667-170.667h128c0-141.44-114.56-256-256-256-43.307 0-83.84 10.88-119.68 29.653l-62.293-62.293c52.907-33.067 114.987-52.693 181.973-52.693 188.587 0 341.333 152.747 341.333 341.333h128l-170.667 170.667zM256 426.667c0 141.44 114.56 256 256 256 43.307 0 83.84-10.88 119.68-29.653l62.293 62.293c-52.907 33.067-114.987 52.693-181.973 52.693-188.587 0-341.333-152.747-341.333-341.333h-128l170.667-170.667 170.667 170.667h-128z" />
<glyph unicode="&#xe65d;" glyph-name="credit-card" d="M899.819 814.486h-775.638c-53.568 0-96.471-43.387-96.471-96.954l-0.485-581.729c0-53.568 43.387-96.954 96.954-96.954h775.638c53.568 0 96.954 43.387 96.954 96.954v581.729c0 53.568-43.387 96.954-96.954 96.954zM899.819 135.804h-775.638v290.863h775.638v-290.863zM899.819 620.577h-775.638v96.954h775.638v-96.954z" />
<glyph unicode="&#xe65e;" glyph-name="dashboard" d="M36.94 373.882h422.276v527.845h-422.276v-527.845zM36.94-48.393h422.276v316.705h-422.276v-316.705zM564.785-48.393h422.276v527.845h-422.276v-527.845zM564.785 901.727v-316.705h422.276v316.705h-422.276z" />
<glyph unicode="&#xe65f;" glyph-name="delete" d="M195.295 57.176c0-58.327 47.241-105.568 105.568-105.568h422.276c58.327 0 105.568 47.241 105.568 105.568v633.414h-633.414v-633.414zM881.491 848.943h-184.746l-52.785 52.785h-263.922l-52.785-52.785h-184.746v-105.568h738.981v105.568z" />
<glyph unicode="&#xe660;" glyph-name="description" d="M608.954 911.441h-387.819c-53.568 0-96.471-43.387-96.471-96.954l-0.485-775.638c0-53.568 42.903-96.954 96.471-96.954h582.213c53.568 0 96.954 43.387 96.954 96.954v581.729l-290.863 290.863zM705.91 135.804h-387.819v96.954h387.819v-96.954zM705.91 329.713h-387.819v96.954h387.819v-96.954zM560.478 572.099v266.626l266.626-266.626h-266.626z" />
<glyph unicode="&#xe661;" glyph-name="dns" d="M934.276 373.882h-844.551c-29.032 0-52.785-23.753-52.785-52.785v-316.705c0-29.032 23.753-52.785 52.785-52.785h844.551c29.032 0 52.785 23.753 52.785 52.785v316.705c0 29.032-23.753 52.785-52.785 52.785zM248.078 57.176c-58.327 0-105.568 47.241-105.568 105.568s47.241 105.568 105.568 105.568 105.568-47.241 105.568-105.568-47.241-105.568-105.568-105.568zM934.276 901.727h-844.551c-29.032 0-52.785-23.753-52.785-52.785v-316.705c0-29.032 23.753-52.785 52.785-52.785h844.551c29.032 0 52.785 23.753 52.785 52.785v316.705c0 29.032-23.753 52.785-52.785 52.785zM248.078 585.020c-58.327 0-105.568 47.241-105.568 105.568s47.241 105.568 105.568 105.568 105.568-47.241 105.568-105.568-47.241-105.568-105.568-105.568z" />
<glyph unicode="&#xe662;" glyph-name="done" d="M384 248.747l-177.92 177.92-60.373-60.373 238.293-238.293 512 512-60.373 60.373z" />
<glyph unicode="&#xe663;" glyph-name="done-all" d="M768 640l-60.373 60.373-270.507-270.72 60.373-60.373 270.507 270.72zM949.12 700.374l-451.84-451.627-177.92 177.92-60.373-60.373 238.293-238.293 512 512-60.16 60.373zM17.707 366.294l238.293-238.293 60.373 60.373-238.293 238.293-60.373-60.373z" />
<glyph unicode="&#xe664;" glyph-name="event" d="M754.386 375.284h-242.386v-242.386h242.386v242.386zM705.91 908.535v-96.954h-387.819v96.954h-96.954v-96.954h-48.478c-53.568 0-96.471-43.387-96.471-96.954l-0.485-678.682c0-53.568 43.387-96.954 96.954-96.954h678.682c53.568 0 96.954 43.387 96.954 96.954v678.682c0 53.568-43.387 96.954-96.954 96.954h-48.478v96.954h-96.954zM851.342 35.943h-678.682v533.251h678.682v-533.251z" />
<glyph unicode="&#xe665;" glyph-name="airline_seat_individual_suite" d="M810 640.667q70 0 121-51t51-121v-256h-940v428h86v-300h342v300h340zM298 384.667q-52 0-90 38t-38 90 38 90 90 38 90-38 38-90-38-90-90-38z" />
<glyph unicode="&#xe666;" glyph-name="explore" d="M512 479.992c-29.328 0-53.325-23.996-53.325-53.325s23.996-53.325 53.325-53.325c29.572 0 53.325 23.996 53.325 53.325s-23.755 53.325-53.325 53.325zM512 911.441c-267.837 0-484.774-216.935-484.774-484.774 0-267.595 216.935-484.774 484.774-484.774s484.774 217.179 484.774 484.774c0 267.837-216.935 484.774-484.774 484.774zM618.166 320.501l-397.030-184.699 184.699 397.030 397.030 184.699-184.699-397.030z" />
<glyph unicode="&#xe667;" glyph-name="extension" d="M885.556 449.897h-69.687v185.83c0 51.336-41.579 92.914-92.914 92.914h-185.83v69.687c0 64.111-52.033 116.144-116.144 116.144s-116.144-52.033-116.144-116.144v-69.687h-185.83c-51.336 0-92.451-41.579-92.451-92.914l-0.232-176.538h69.454c69.221 0 125.435-56.214 125.435-125.435s-56.214-125.435-125.435-125.435h-69.454l-0.232-176.538c0-51.336 41.579-92.914 92.914-92.914h176.538v69.687c0 69.221 56.214 125.435 125.435 125.435s125.435-56.214 125.435-125.435v-69.687h176.538c51.336 0 92.914 41.579 92.914 92.914v185.83h69.687c64.111 0 116.144 52.033 116.144 116.144s-52.033 116.144-116.144 116.144z" />
<glyph unicode="&#xe668;" glyph-name="favorite" d="M512-26.596l-70.293 63.747c-249.658 226.632-414.481 376.183-414.481 559.186 0 149.553 117.073 266.626 266.626 266.626 84.351 0 165.308-39.267 218.149-101.075 52.841 61.808 133.798 101.075 218.149 101.075 149.553 0 266.626-117.073 266.626-266.626 0-183.002-164.823-332.554-414.481-559.186l-70.293-63.747z" />
<glyph unicode="&#xe669;" glyph-name="favorite-outline" d="M730.149 862.964c-84.351 0-165.308-39.267-218.149-101.075-52.841 61.808-133.798 101.075-218.149 101.075-149.553 0-266.626-117.073-266.626-266.626 0-183.002 164.823-332.554 414.481-559.186l70.293-63.747 70.293 63.747c249.658 226.632 414.481 376.183 414.481 559.186 0 149.553-117.073 266.626-266.626 266.626zM517.090 108.898l-5.090-4.605-5.090 4.605c-230.51 209.181-382.729 347.342-382.729 487.44 0 96.713 72.958 169.671 169.671 169.671 74.656 0 147.371-48.235 172.822-114.406h90.41c25.693 66.171 98.409 114.406 173.065 114.406 96.713 0 169.671-72.958 169.671-169.671 0-140.099-152.218-278.26-382.729-487.44z" />
<glyph unicode="&#xe66a;" glyph-name="flip-to-back" d="M384 640h-85.333v-85.333h85.333v85.333zM384 469.334h-85.333v-85.333h85.333v85.333zM384 810.667c-47.147 0-85.333-38.187-85.333-85.333h85.333v85.333zM554.667 298.667h-85.333v-85.333h85.333v85.333zM810.667 810.667v-85.333h85.333c0 47.147-38.187 85.333-85.333 85.333zM554.667 810.667h-85.333v-85.333h85.333v85.333zM384 213.334v85.333h-85.333c0-47.147 38.187-85.333 85.333-85.333zM810.667 384h85.333v85.333h-85.333v-85.333zM810.667 554.667h85.333v85.333h-85.333v-85.333zM810.667 213.334c47.147 0 85.333 38.187 85.333 85.333h-85.333v-85.333zM213.333 640h-85.333v-512c0-47.147 38.187-85.333 85.333-85.333h512v85.333h-512v512zM640 725.334h85.333v85.333h-85.333v-85.333zM640 213.334h85.333v85.333h-85.333v-85.333z" />
<glyph unicode="&#xe66b;" glyph-name="flip-to-front" d="M128 384h85.333v85.333h-85.333v-85.333zM128 213.334h85.333v85.333h-85.333v-85.333zM213.333 42.667v85.333h-85.333c0-47.147 38.187-85.333 85.333-85.333zM128 554.667h85.333v85.333h-85.333v-85.333zM640 42.667h85.333v85.333h-85.333v-85.333zM810.667 810.667h-426.667c-47.147 0-85.333-38.187-85.333-85.333v-426.667c0-47.147 38.187-85.333 85.333-85.333h426.667c47.147 0 85.333 38.187 85.333 85.333v426.667c0 47.147-38.187 85.333-85.333 85.333zM810.667 298.667h-426.667v426.667h426.667v-426.667zM469.333 42.667h85.333v85.333h-85.333v-85.333zM298.667 42.667h85.333v85.333h-85.333v-85.333z" />
<glyph unicode="&#xe66c;" glyph-name="airline_seat_recline_extra" d="M692 298.667l246-192-64-64-162 128h-292q-46 0-81 29t-45 75l-58 252q-6 40 17 72t61 40h2q44 6 74-18l70-54q96-74 200-54v-92q-96-16-220 52l44-174h208zM682 128.667v-86h-300q-80 0-140 51t-72 129l-84 418h84l84-404q8-46 44-77t84-31h300zM228 698.667q-28 20-34 55t14 63 55 35 63-13q28-22 35-57t-13-63-56-34-64 14z" />
<glyph unicode="&#xe66d;" glyph-name="help" d="M512 911.441c-267.837 0-484.774-216.935-484.774-484.774s216.935-484.774 484.774-484.774 484.774 216.935 484.774 484.774-216.935 484.774-484.774 484.774zM560.478 87.325h-96.954v96.954h96.954v-96.954zM660.583 462.783l-43.387-44.599c-34.904-34.904-56.718-64.232-56.718-136.948h-96.954v24.239c0 53.568 21.815 102.045 56.718 137.191l60.355 61.081c17.452 17.452 28.359 41.69 28.359 68.353 0 53.568-43.387 96.954-96.954 96.954s-96.954-43.387-96.954-96.954h-96.954c0 107.135 86.775 193.91 193.91 193.91s193.91-86.775 193.91-193.91c0-42.659-17.21-81.199-45.326-109.316z" />
<glyph unicode="&#xe66e;" glyph-name="highlight-remove" d="M637.313 620.577l-125.313-125.313-125.313 125.313-68.595-68.595 125.313-125.313-125.313-125.313 68.595-68.595 125.313 125.313 125.313-125.313 68.595 68.595-125.313 125.313 125.313 125.313-68.595 68.595zM512 911.441c-267.837 0-484.774-216.935-484.774-484.774s216.935-484.774 484.774-484.774 484.774 216.935 484.774 484.774-216.935 484.774-484.774 484.774zM512 38.848c-213.786 0-387.819 174.033-387.819 387.819s174.033 387.819 387.819 387.819 387.819-174.033 387.819-387.819-174.033-387.819-387.819-387.819z" />
<glyph unicode="&#xe66f;" glyph-name="history" d="M579.558 844.785c-231.126 0-417.885-187.224-417.885-418.118h-139.372l180.953-180.953 3.253-6.737 187.456 187.687h-139.372c0 179.559 145.645 325.203 325.203 325.203s325.203-145.645 325.203-325.203-145.645-325.203-325.203-325.203c-89.896 0-170.963 36.702-229.732 95.47l-65.737-65.737c75.493-75.726 179.79-122.647 295.238-122.647 231.126 0 418.349 187.224 418.349 418.118s-187.224 418.118-418.349 418.118zM533.333 612.497v-232.287l198.838-118.002 33.45 56.446-162.601 96.399v197.444h-69.687z" />
<glyph unicode="&#xe670;" glyph-name="home" d="M410.831 21.986v303.509h202.341v-303.509h252.925v404.681h151.755l-505.851 455.266-505.851-455.266h151.755v-404.681z" />
<glyph unicode="&#xe671;" glyph-name="airline_seat_recline_normal" d="M854 82.667l-62-62-150 150h-216q-52 0-90 38t-38 90v246q0 38 29 67t67 29h2q38 0 70-32l60-66q34-38 91-62t109-24v-94q-124 0-236 94v-158h148zM256 256.667q0-52 38-90t90-38h256v-86h-256q-88 0-151 63t-63 151v384h86v-384zM324 708.667q-26 26-26 60t26 60 60 26 60-26 26-60-26-60-60-26-60 26z" />
<glyph unicode="&#xe672;" glyph-name="info2" d="M512 911.441c-267.837 0-484.774-216.935-484.774-484.774s216.935-484.774 484.774-484.774 484.774 216.935 484.774 484.774-216.935 484.774-484.774 484.774zM560.478 184.281h-96.954v290.863h96.954v-290.863zM560.478 572.099h-96.954v96.954h96.954v-96.954z" />
<glyph unicode="&#xe673;" glyph-name="info-outline" d="M463.522 184.281h96.954v290.863h-96.954v-290.863zM512 911.441c-267.837 0-484.774-216.935-484.774-484.774s216.935-484.774 484.774-484.774 484.774 216.935 484.774 484.774-216.935 484.774-484.774 484.774zM512 38.848c-213.786 0-387.819 174.033-387.819 387.819s174.033 387.819 387.819 387.819 387.819-174.033 387.819-387.819-174.033-387.819-387.819-387.819zM463.522 572.099h96.954v96.954h-96.954v-96.954z" />
<glyph unicode="&#xe674;" glyph-name="input" d="M896 810.24h-768c-47.147 0-85.333-38.187-85.333-85.333v-170.24h85.333v171.093h768v-598.613h-768v171.52h-85.333v-171.093c0-47.147 38.187-84.48 85.333-84.48h768c47.147 0 85.333 37.547 85.333 84.48v597.333c0 47.147-38.187 85.333-85.333 85.333zM469.333 256l170.667 170.667-170.667 170.667v-128h-426.667v-85.333h426.667v-128z" />
<glyph unicode="&#xe675;" glyph-name="power" d="M741.333 712q42.667 0 77.333-36t34.667-78.667v-312l-200-200v-170.667h-282.667v170.667l-200 200v312q0 42.667 34.667 78.667t77.333 36h2.667v226.667h112v-226.667h229.333v226.667h112z" />
<glyph unicode="&#xe676;" glyph-name="label" d="M775.714 738.017c-18.463 25.798-48.561 42.745-82.707 42.745l-556.436-0.506c-55.897 0-101.169-44.768-101.169-100.665v-505.851c0-55.897 45.273-100.665 101.169-100.665l556.436-0.506c34.145 0 64.243 16.945 82.707 42.745l220.803 311.35-220.803 311.35z" />
</font>
</defs>
</svg>
